<?xml version="1.0" standalone="no"?>
<!DOCTYPE svg PUBLIC "-//W3C//DTD SVG 1.1//EN" "http://www.w3.org/Graphics/SVG/1.1/DTD/svg11.dtd" >
<svg xmlns="http://www.w3.org/2000/svg">
<metadata>Generated by IcoMoon</metadata>
<defs>
<font id="icomoon" horiz-adv-x="1024">
<font-face units-per-em="1024" ascent="877.7142857142858" descent="-146.28571428571428" />
<missing-glyph horiz-adv-x="1024" />
<glyph unicode="&#x20;" horiz-adv-x="256" d="" />
<glyph unicode="&#xe900;" glyph-name="gatewayClosed" horiz-adv-x="872" d="M0-160v1024h178.842v-1024zM28.968-131.032h120.907v966.064h-120.907zM200.963-158.514v892.4h469.652v-892.4zM226.989-132.489h417.543v840.292h-417.543zM692.71-160v1024h178.842v-1024zM721.677-131.032h120.907v966.064h-120.907z" />
<glyph unicode="&#xe901;" glyph-name="gatewayPartiallyOpen" horiz-adv-x="871" d="M692.104-159.167c0 341.056 0 682.111 0 1023.167 59.584 0 119.169 0 178.753 0 0-341.056 0-682.111 0-1023.167-59.584 0-119.169 0-178.753 0zM721.048-130.223c40.288 0 80.576 0 120.865 0 0 321.759 0 643.519 0 965.278-40.288 0-80.576 0-120.865 0 0-321.759 0-643.519 0-965.278zM0-159.167c0 341.056 0 682.111 0 1023.167 59.566 0 119.131 0 178.697 0 0-341.056 0-682.111 0-1023.167-59.566 0-119.131 0-178.697 0zM28.944-130.223c40.269 0 80.539 0 120.808 0 0 321.759 0 643.519 0 965.278-40.269 0-80.539 0-120.808 0 0-321.759 0-643.519 0-965.278zM202.074-160c0 297.357 0 594.713 0 892.070 127.479 20.709 254.958 41.419 382.437 62.128 0-297.357 0-594.713 0-892.070-127.479-20.709-254.958-41.419-382.437-62.128zM228.079-129.416c110.124 17.902 220.247 35.803 330.371 53.705 0 279.756 0 559.513 0 839.269-110.124-17.883-220.247-35.766-330.371-53.649 0-279.775 0-559.551 0-839.326zM476.009-97.156c22.814-6.25 26.025 7.103 22.808 26.885 0 278.541 0 557.083 0 835.624-22.814 6.25-26.025-7.103-22.808-26.885 0-278.541 0-557.083 0-835.624zM384.69-114.147c22.812-6.238 26.067 7.081 22.837 26.885 0 278.532 0 557.063 0 835.595-22.812 6.238-26.067-7.081-22.837-26.885 0-278.532 0-557.063 0-835.595zM293.426 730.57c0-287.503 0-575.006 0-862.509 22.578-2.981 26.095 10.602 22.808 30.098 0 278.532 0 557.063 0 835.595-7.603-1.061-15.205-2.123-22.808-3.184z" />
<glyph unicode="&#xe902;" glyph-name="gatewayOpen" horiz-adv-x="872" d="M0-160c0 341.333 0 682.667 0 1024 59.614 0 119.228 0 178.842 0 0-341.333 0-682.667 0-1024-59.614 0-119.228 0-178.842 0zM28.968-131.032c40.302 0 80.604 0 120.907 0 0 322.021 0 644.043 0 966.064-40.302 0-80.604 0-120.907 0 0-322.021 0-644.043 0-966.064zM241.158-159.588c-16.709 0.174-39.606-5.812-31.865 18.826 0 291.108 0 582.216 0 873.324 16.709-0.174 39.606 5.812 31.865-18.826 0-291.108 0-582.216 0-873.324zM692.721-160c0 341.333 0 682.667 0 1024 59.614 0 119.228 0 178.842 0 0-341.333 0-682.667 0-1024-59.614 0-119.228 0-178.842 0zM721.689-131.032c40.302 0 80.604 0 120.907 0 0 322.021 0 644.043 0 966.064-40.302 0-80.604 0-120.907 0 0-322.021 0-644.043 0-966.064z" />
<glyph unicode="&#xe903;" horiz-adv-x="1340" d="M0-160c0 341.333 0 682.667 0 1024 59.614 0 119.228 0 178.842 0 0-341.333 0-682.667 0-1024-59.614 0-119.228 0-178.842 0zM28.968-131.032c40.302 0 80.604 0 120.907 0 0 322.021 0 644.043 0 966.064-40.302 0-80.604 0-120.907 0 0-322.021 0-644.043 0-966.064z" />
<glyph unicode="&#xe904;" horiz-adv-x="1340" d="M164.131-100.325c0 301.54 0 603.081 0 904.621 390.744 0 781.489 0 1172.233 0 0-301.54 0-603.081 0-904.621-390.744 0-781.489 0-1172.233 0zM202.377-62.078c365.228 0 730.456 0 1095.684 0 0 276.043 0 552.085 0 828.128-365.228 0-730.456 0-1095.684 0 0-276.043 0-552.085 0-828.128z" />
<glyph unicode="&#xe905;" horiz-adv-x="1340" d="M1317.221 687.404c-377.991 0-755.982 0-1133.973 0 0.087 20.887-7.089 49.033 23.607 39.309 370.122 0 740.244 0 1110.366 0 0-13.103 0-26.206 0-39.309z" />
<glyph unicode="&#xe906;" horiz-adv-x="1340" d="M1317.221 608.727c-377.991 0-755.982 0-1133.973 0 0.087 20.89-7.098 49.062 23.607 39.338 370.122 0 740.244 0 1110.366 0 0-13.113 0-26.225 0-39.338z" />
<glyph unicode="&#xe907;" horiz-adv-x="1340" d="M1317.221 530.080c-377.991 0-755.982 0-1133.973 0 0.087 20.89-7.098 49.062 23.607 39.338 370.122 0 740.244 0 1110.366 0 0-13.113 0-26.225 0-39.338z" />
<glyph unicode="&#xe908;" horiz-adv-x="1340" d="M1317.221 451.432c-377.991 0-755.982 0-1133.973 0 0.087 20.887-7.089 49.033 23.607 39.309 370.122 0 740.244 0 1110.366 0 0-13.103 0-26.206 0-39.309z" />
<glyph unicode="&#xe909;" horiz-adv-x="1340" d="M1317.221 372.785c-377.991 0-755.982 0-1133.973 0 0.087 20.887-7.089 49.033 23.607 39.309 370.122 0 740.244 0 1110.366 0 0-13.103 0-26.206 0-39.309z" />
<glyph unicode="&#xe90a;" horiz-adv-x="1340" d="M1317.221 294.108c-377.991 0-755.982 0-1133.973 0 0.087 20.89-7.098 49.062 23.607 39.338 370.122 0 740.244 0 1110.366 0 0-13.113 0-26.225 0-39.338z" />
<glyph unicode="&#xe90b;" horiz-adv-x="1340" d="M1317.221 215.46c-377.991 0-755.982 0-1133.973 0 0.087 20.89-7.098 49.062 23.607 39.338 370.122 0 740.244 0 1110.366 0 0-13.113 0-26.225 0-39.338z" />
<glyph unicode="&#xe90c;" horiz-adv-x="1340" d="M1317.221 136.813c-377.991 0-755.982 0-1133.973 0 0.087 20.887-7.089 49.033 23.607 39.309 370.122 0 740.244 0 1110.366 0 0-13.103 0-26.206 0-39.309z" />
<glyph unicode="&#xe90d;" horiz-adv-x="1340" d="M1317.221 58.165c-377.991 0-755.982 0-1133.973 0 0.087 20.887-7.089 49.033 23.607 39.309 370.122 0 740.244 0 1110.366 0 0-13.103 0-26.206 0-39.309z" />
<glyph unicode="&#xe90e;" horiz-adv-x="1340" d="M1317.221-20.482c-377.991 0-755.982 0-1133.973 0 0.087 20.887-7.089 49.033 23.607 39.309 370.122 0 740.244 0 1110.366 0 0-13.103 0-26.206 0-39.309z" />
<glyph unicode="&#xe90f;" horiz-adv-x="1340" d="M1175.317 721.933c0-289.147 0-578.294 0-867.44 49.96 0 99.92 0 149.879 0 0 331.672 0 663.343 0 995.014-49.96 0-99.92 0-149.879 0 0-42.525 0-85.049 0-127.574z" />
<glyph unicode="&#xe910;" horiz-adv-x="1340" d="M1160.833-160c0 341.333 0 682.667 0 1024 59.614 0 119.228 0 178.842 0 0-341.333 0-682.667 0-1024-59.614 0-119.228 0-178.842 0zM1189.8-131.032c40.302 0 80.604 0 120.907 0 0 322.021 0 644.043 0 966.064-40.302 0-80.604 0-120.907 0 0-322.021 0-644.043 0-966.064z" />
<glyph unicode="&#xe911;" horiz-adv-x="1375" d="M0-160c0 341.333 0 682.667 0 1024 59.617 0 119.235 0 178.852 0 0-341.333 0-682.667 0-1024-59.617 0-119.235 0-178.852 0zM28.969-131.030c40.304 0 80.609 0 120.913 0 0 322.020 0 644.041 0 966.061-40.304 0-80.609 0-120.913 0 0-322.020 0-644.041 0-966.061z" />
<glyph unicode="&#xe912;" horiz-adv-x="1375" d="M482.777-100.307c0 301.557 0 603.114 0 904.671 297.483 0 594.966 0 892.45 0 0.297-21.048 6.719-48.221-24.004-38.249-276.732 0-553.464 0-830.197 0 0-276.058 0-552.116 0-828.174 284.734 0 569.467 0 854.201 0 0.297-21.048 6.719-48.221-24.004-38.249-289.482 0-578.963 0-868.445 0z" />
<glyph unicode="&#xe913;" horiz-adv-x="1375" d="M1375.23 687.425c-291.104 0-582.207 0-873.311 0-0.058 21.169-7.014 49.225 24.004 39.311 283.102 0 566.205 0 849.307 0 0-13.104 0-26.208 0-39.311z" />
<glyph unicode="&#xe914;" horiz-adv-x="1375" d="M1375.23 608.773c-291.104 0-582.207 0-873.311 0-0.058 21.172-7.022 49.252 24.004 39.34 283.102 0 566.205 0 849.307 0 0-13.114 0-26.227 0-39.34z" />
<glyph unicode="&#xe915;" horiz-adv-x="1375" d="M1375.23 530.121c-291.104 0-582.207 0-873.311 0-0.058 21.172-7.022 49.252 24.004 39.34 283.102 0 566.205 0 849.307 0 0-13.114 0-26.227 0-39.34z" />
<glyph unicode="&#xe916;" horiz-adv-x="1375" d="M1375.23 451.469c-291.104 0-582.207 0-873.311 0-0.058 21.169-7.014 49.225 24.004 39.311 283.102 0 566.205 0 849.307 0 0-13.104 0-26.208 0-39.311z" />
<glyph unicode="&#xe917;" horiz-adv-x="1375" d="M1375.23 372.817c-291.104 0-582.207 0-873.311 0-0.058 21.169-7.014 49.225 24.004 39.311 283.102 0 566.205 0 849.307 0 0-13.104 0-26.208 0-39.311z" />
<glyph unicode="&#xe918;" horiz-adv-x="1375" d="M1375.23 294.136c-291.104 0-582.207 0-873.311 0-0.058 21.169-7.014 49.225 24.004 39.311 283.102 0 566.205 0 849.307 0 0-13.104 0-26.208 0-39.311z" />
<glyph unicode="&#xe919;" horiz-adv-x="1375" d="M1375.23 215.484c-291.104 0-582.207 0-873.311 0-0.058 21.172-7.022 49.252 24.004 39.34 283.102 0 566.205 0 849.307 0 0-13.114 0-26.227 0-39.34z" />
<glyph unicode="&#xe91a;" horiz-adv-x="1375" d="M1375.23 136.832c-291.104 0-582.207 0-873.311 0-0.058 21.172-7.022 49.252 24.004 39.34 283.102 0 566.205 0 849.307 0 0-13.114 0-26.227 0-39.34z" />
<glyph unicode="&#xe91b;" horiz-adv-x="1375" d="M1375.23 58.181c-291.104 0-582.207 0-873.311 0-0.058 21.169-7.014 49.225 24.004 39.311 283.102 0 566.205 0 849.307 0 0-13.104 0-26.208 0-39.311z" />
<glyph unicode="&#xe91c;" horiz-adv-x="1375" d="M1375.23-20.5c-291.104 0-582.207 0-873.311 0-0.058 21.169-7.014 49.225 24.004 39.311 283.102 0 566.205 0 849.307 0 0-13.104 0-26.208 0-39.311z" />
<glyph unicode="&#xe91d;" horiz-adv-x="1375" d="M1175.382 721.982c0-289.163 0-578.326 0-867.488 49.963 0 99.925 0 149.888 0 0 331.68 0 663.36 0 995.041-49.963 0-99.925 0-149.888 0 0-42.517 0-85.035 0-127.552z" />
<glyph unicode="&#xe91e;" horiz-adv-x="1375" d="M1160.897-160c0 341.333 0 682.667 0 1024 59.617 0 119.235 0 178.852 0 0-341.333 0-682.667 0-1024-59.617 0-119.235 0-178.852 0zM1189.866-131.030c40.304 0 80.609 0 120.913 0 0 322.020 0 644.041 0 966.061-40.304 0-80.609 0-120.913 0 0-322.020 0-644.041 0-966.061z" />
<glyph unicode="&#xe91f;" horiz-adv-x="1375" d="M0-160c0 341.333 0 682.667 0 1024 59.614 0 119.228 0 178.842 0 0-341.333 0-682.667 0-1024-59.614 0-119.228 0-178.842 0zM28.968-131.032c40.302 0 80.604 0 120.907 0 0 322.021 0 644.043 0 966.064-40.302 0-80.604 0-120.907 0 0-322.021 0-644.043 0-966.064z" />
<glyph unicode="&#xe920;" horiz-adv-x="1375" d="M1091.071-100.313c0 301.54 0 603.081 0 904.621 94.692 0 189.384 0 284.077 0 0.297-21.047 6.719-48.219-24.003-38.247-73.942 0-147.884 0-221.827 0 0-276.043 0-552.085 0-828.128 81.943 0 163.887 0 245.83 0 0.297-21.047 6.719-48.219-24.003-38.247-86.691 0-173.382 0-260.073 0z" />
<glyph unicode="&#xe921;" horiz-adv-x="1375" d="M1375.136 687.404c-88.313 0-176.626 0-264.939 0-0.058 21.168-7.014 49.222 24.003 39.309 80.312 0 160.624 0 240.936 0 0-13.103 0-26.206 0-39.309z" />
<glyph unicode="&#xe922;" horiz-adv-x="1375" d="M1375.136 608.756c-88.313 0-176.626 0-264.939 0-0.058 21.168-7.014 49.222 24.003 39.309 80.312 0 160.624 0 240.936 0 0-13.103 0-26.206 0-39.309z" />
<glyph unicode="&#xe923;" horiz-adv-x="1375" d="M1375.136 530.080c-88.313 0-176.626 0-264.939 0-0.058 21.168-7.014 49.222 24.003 39.309 80.312 0 160.624 0 240.936 0 0-13.103 0-26.206 0-39.309z" />
<glyph unicode="&#xe924;" horiz-adv-x="1375" d="M1375.136 451.432c-88.313 0-176.626 0-264.939 0-0.058 21.171-7.022 49.25 24.003 39.338 80.312 0 160.624 0 240.936 0 0-13.113 0-26.225 0-39.338z" />
<glyph unicode="&#xe925;" horiz-adv-x="1375" d="M1375.136 372.785c-88.313 0-176.626 0-264.939 0-0.058 21.171-7.022 49.25 24.003 39.338 80.312 0 160.624 0 240.936 0 0-13.113 0-26.225 0-39.338z" />
<glyph unicode="&#xe926;" horiz-adv-x="1375" d="M1375.136 294.137c-88.313 0-176.626 0-264.939 0-0.058 21.168-7.014 49.222 24.003 39.309 80.312 0 160.624 0 240.936 0 0-13.103 0-26.206 0-39.309z" />
<glyph unicode="&#xe927;" horiz-adv-x="1375" d="M1375.136 215.489c-88.313 0-176.626 0-264.939 0-0.058 21.168-7.014 49.222 24.003 39.309 80.312 0 160.624 0 240.936 0 0-13.103 0-26.206 0-39.309z" />
<glyph unicode="&#xe928;" horiz-adv-x="1375" d="M1375.136 136.813c-88.313 0-176.626 0-264.939 0-0.058 21.168-7.014 49.222 24.003 39.309 80.312 0 160.624 0 240.936 0 0-13.103 0-26.206 0-39.309z" />
<glyph unicode="&#xe929;" horiz-adv-x="1375" d="M1375.136 58.165c-88.313 0-176.626 0-264.939 0-0.058 21.171-7.022 49.25 24.003 39.338 80.312 0 160.624 0 240.936 0 0-13.113 0-26.225 0-39.338z" />
<glyph unicode="&#xe92a;" horiz-adv-x="1375" d="M1375.136-20.482c-88.313 0-176.626 0-264.939 0-0.058 21.171-7.022 49.25 24.003 39.338 80.312 0 160.624 0 240.936 0 0-13.113 0-26.225 0-39.338z" />
<glyph unicode="&#xe92b;" horiz-adv-x="1375" d="M1175.302 721.933c0-289.147 0-578.294 0-867.44 49.96 0 99.92 0 149.879 0 0 331.672 0 663.343 0 995.014-49.96 0-99.92 0-149.879 0 0-42.525 0-85.049 0-127.574z" />
<glyph unicode="&#xe92c;" horiz-adv-x="1375" d="M1160.818-160c0 341.333 0 682.667 0 1024 59.614 0 119.228 0 178.842 0 0-341.333 0-682.667 0-1024-59.614 0-119.228 0-178.842 0zM1189.786-131.032c40.302 0 80.604 0 120.907 0 0 322.021 0 644.043 0 966.064-40.302 0-80.604 0-120.907 0 0-322.021 0-644.043 0-966.064z" />
<glyph unicode="&#xe92d;" glyph-name="gateClosed" horiz-adv-x="1340" d="M0-160c0 341.333 0 682.667 0 1024 59.614 0 119.228 0 178.842 0 0-341.333 0-682.667 0-1024-59.614 0-119.228 0-178.842 0zM28.968-131.032c40.302 0 80.604 0 120.907 0 0 322.021 0 644.043 0 966.064-40.302 0-80.604 0-120.907 0 0-322.021 0-644.043 0-966.064zM1160.833-160c0 341.333 0 682.667 0 1024 59.614 0 119.228 0 178.842 0 0-341.333 0-682.667 0-1024-59.614 0-119.228 0-178.842 0zM1189.801-131.032c40.302 0 80.604 0 120.907 0 0 322.021 0 644.043 0 966.064-40.302 0-80.604 0-120.907 0 0-322.021 0-644.043 0-966.064zM202.21-158.545c0 297.486 0 594.971 0 892.457 156.569 0 313.139 0 469.708 0 0-297.486 0-594.971 0-892.457-156.569 0-313.139 0-469.708 0zM228.292-132.462c139.181 0 278.362 0 417.543 0 0 280.097 0 560.195 0 840.292-139.181 0-278.362 0-417.543 0 0-280.097 0-560.195 0-840.292zM564.519-143.917c-26.29-5.551-38.457 3.021-31.865 30.352 0 277.61 0 555.22 0 832.83 26.29 5.551 38.457-3.021 31.865-30.352 0-277.61 0-555.22 0-832.83zM452.993-143.917c-26.29-5.551-38.457 3.021-31.865 30.352 0 277.61 0 555.22 0 832.83 26.29 5.551 38.457-3.021 31.865-30.352 0-277.61 0-555.22 0-832.83zM341.467-143.917c-26.288-5.54-38.495 3.002-31.894 30.352 0 277.61 0 555.22 0 832.83 26.288 5.54 38.495-3.002 31.894-30.352 0-277.61 0-555.22 0-832.83zM669.089-158.545c0 297.486 0 594.971 0 892.457 156.551 0 313.101 0 469.652 0 0-297.486 0-594.971 0-892.457-156.551 0-313.101 0-469.652 0zM695.115-132.462c139.181 0 278.362 0 417.543 0 0 280.097 0 560.195 0 840.292-139.181 0-278.362 0-417.543 0 0-280.097 0-560.195 0-840.292zM1031.364-143.917c-26.29-5.551-38.457 3.021-31.865 30.352 0 277.61 0 555.22 0 832.83 26.29 5.551 38.457-3.021 31.865-30.352 0-277.61 0-555.22 0-832.83zM919.838-143.917c-26.288-5.54-38.495 3.002-31.894 30.352 0 277.61 0 555.22 0 832.83 26.288 5.54 38.495-3.002 31.894-30.352 0-277.61 0-555.22 0-832.83zM808.312-143.917c-26.29-5.551-38.457 3.021-31.865 30.352 0 277.61 0 555.22 0 832.83 26.29 5.551 38.457-3.021 31.865-30.352 0-277.61 0-555.22 0-832.83z" />
<glyph unicode="&#xe92e;" glyph-name="gatePartiallyOpen" horiz-adv-x="1339" d="M0-159.167c0 341.056 0 682.111 0 1023.167 59.569 0 119.138 0 178.706 0 0-341.056 0-682.111 0-1023.167-59.569 0-119.138 0-178.706 0zM28.946-130.221c40.272 0 80.543 0 120.815 0 0 321.758 0 643.517 0 965.275-40.272 0-80.543 0-120.815 0 0-321.758 0-643.517 0-965.275zM1159.938-159.167c0 341.056 0 682.111 0 1023.167 59.569 0 119.138 0 178.706 0 0-341.056 0-682.111 0-1023.167-59.569 0-119.138 0-178.706 0zM1188.884-130.221c40.272 0 80.543 0 120.815 0 0 321.758 0 643.517 0 965.275-40.272 0-80.543 0-120.815 0 0-321.758 0-643.517 0-965.275zM668.537-157.74c0 297.26 0 594.52 0 891.78 156.432 0 312.863 0 469.295 0 0-297.26 0-594.52 0-891.78-156.432 0-312.863 0-469.295 0zM694.543-131.677c139.076 0 278.151 0 417.227 0 0 279.885 0 559.77 0 839.655-139.076 0-278.151 0-417.227 0 0-279.885 0-559.77 0-839.655zM1046.462-143.099c-26.277-5.552-38.427 3.025-31.84 30.337 0 277.397 0 554.794 0 832.19 26.277 5.552 38.427-3.025 31.84-30.337 0-277.397 0-554.794 0-832.19zM919.129-143.099c-26.277-5.552-38.427 3.025-31.84 30.337 0 277.397 0 554.794 0 832.19 26.277 5.552 38.427-3.025 31.84-30.337 0-277.397 0-554.794 0-832.19zM791.767-143.099c-26.277-5.552-38.427 3.025-31.84 30.337 0 277.397 0 554.794 0 832.19 26.277 5.552 38.427-3.025 31.84-30.337 0-277.397 0-554.794 0-832.19zM202.068-160c0 297.373 0 594.746 0 892.119 127.486 20.711 254.972 41.421 382.458 62.132 0-297.373 0-594.746 0-892.119-127.486-20.711-254.972-41.421-382.458-62.132zM228.074-129.415c110.13 17.903 220.26 35.805 330.389 53.708 0 279.772 0 559.544 0 839.316-110.13-17.884-220.26-35.768-330.389-53.652 0-279.791 0-559.581 0-839.372zM476.026-97.133c30.859-9.773 22.035 20.138 22.809 40.449 0 274.026 0 548.052 0 822.078-30.859 9.773-22.035-20.138-22.809-40.449 0-274.026 0-548.052 0-822.078zM384.702-114.153c30.866-9.77 22.079 20.113 22.838 40.449 0 274.026 0 548.052 0 822.078-30.866 9.77-22.079-20.113-22.838-40.449 0-274.026 0-548.052 0-822.078zM293.436-131.955c30.859-9.773 22.035 20.138 22.809 40.449 0 274.026 0 548.052 0 822.078-30.859 9.773-22.035-20.138-22.809-40.449 0-274.026 0-548.052 0-822.078z" />
<glyph unicode="&#xe92f;" glyph-name="gateOpen" horiz-adv-x="1340" d="M0-160c0 341.333 0 682.667 0 1024 59.614 0 119.228 0 178.842 0 0-341.333 0-682.667 0-1024-59.614 0-119.228 0-178.842 0zM28.968-131.032c40.302 0 80.604 0 120.907 0 0 322.021 0 644.043 0 966.064-40.302 0-80.604 0-120.907 0 0-322.021 0-644.043 0-966.064zM1160.818-160c0 341.333 0 682.667 0 1024 59.614 0 119.228 0 178.842 0 0-341.333 0-682.667 0-1024-59.614 0-119.228 0-178.842 0zM1189.786-131.032c40.302 0 80.604 0 120.907 0 0 322.021 0 644.043 0 966.064-40.302 0-80.604 0-120.907 0 0-322.021 0-644.043 0-966.064zM1130.356-159.588c-26.289-5.551-38.457 3.020-31.865 30.352 0 287.266 0 574.532 0 861.798 26.289 5.551 38.457-3.020 31.865-30.352 0-287.266 0-574.532 0-861.798zM241.16-159.588c-26.289-5.551-38.457 3.020-31.865 30.352 0 287.266 0 574.532 0 861.798 26.289 5.551 38.457-3.020 31.865-30.352 0-287.266 0-574.532 0-861.798z" />
<glyph unicode="&#xe930;" glyph-name="garageDoorClosed" horiz-adv-x="1045" d="M28.135-158.929c0 247.357 0 494.713 0 742.070 26.145 8.32 22.078-13.571 21.294-32.181 0-229.532 0-459.064 0-688.596 29.639 0 59.278 0 88.917 0 0 208.998 0 417.996 0 626.994 26.145 8.32 22.078-13.571 21.294-32.181 0-205.369 0-410.738 0-616.107-43.835 0-87.669 0-131.504 0zM881.413-158.929c0 216.096 0 432.192 0 648.287 26.145 8.32 22.078-13.571 21.294-32.181 0-198.271 0-396.542 0-594.813 29.639 0 59.278 0 88.917 0 0 240.259 0 480.518 0 720.777 26.145 8.32 22.078-13.571 21.294-32.181 0-236.63 0-473.26 0-709.89-43.835 0-87.669 0-131.504 0zM891.561-159.999c-247.689 0.388-495.379 0.776-743.068 1.164-8.32 26.158 13.571 22.057 32.181 21.243 236.976-0.371 473.953-0.743 710.929-1.114-0.014-7.098-0.028-14.196-0.043-21.294zM824.271 1.303c-21.903-11.196-31.677 22.051-6.333 15.733 11.543 3.864 4.355-10.008 6.333-15.733zM845.232 1.303c-10.955 21.688 31.013 23.009 20.963 1.093-4.584-2.549-14.505-0.357-20.963-1.093zM740.386 1.344c-21.876-11.171-31.759 21.97-6.375 15.721 11.573 3.89 4.411-9.963 6.375-15.721zM761.347 1.344c-10.945 21.674 30.95 23.017 20.961 1.093-4.577-2.549-14.505-0.357-20.961-1.093zM635.499 1.386c-10.945 21.674 30.95 23.017 20.961 1.093-4.577-2.549-14.505-0.357-20.961-1.093zM677.462 1.386c-10.945 21.674 30.95 23.017 20.961 1.093-4.577-2.549-14.505-0.357-20.961-1.093zM530.612 1.427c-21.903-11.196-31.677 22.051-6.333 15.733 11.583 3.867 4.384-9.972 6.333-15.733zM551.614 1.427c-10.945 21.674 30.95 23.017 20.961 1.093-4.577-2.549-14.505-0.357-20.961-1.093zM593.536 1.427c-10.946 21.709 30.986 22.948 21.002 1.051-4.695-2.443-14.504-0.35-21.002-1.051zM446.727 1.469c-21.881-11.178-31.684 21.993-6.333 15.721 11.545 3.888 4.354-10 6.333-15.721zM467.688 1.469c-10.877 21.674 30.985 23.017 21.003 1.093-4.592-2.548-14.532-0.358-21.003-1.093zM341.84 1.511c-10.879 21.674 30.985 23.017 21.002 1.093-4.592-2.548-14.531-0.358-21.002-1.093zM383.803 1.511c-10.955 21.688 31.013 23.009 20.963 1.093-4.584-2.549-14.505-0.357-20.963-1.093zM236.994 1.552c-21.881-11.178-31.684 21.993-6.333 15.721 11.545 3.888 4.354-10 6.333-15.721zM257.955 1.552c-10.946 21.687 30.986 23.009 21.002 1.093-4.592-2.548-14.532-0.358-21.002-1.093zM299.918 1.552c-10.945 21.696 30.95 22.955 20.961 1.051-4.68-2.443-14.477-0.35-20.961-1.051zM174.070 1.594c-10.945 21.674 30.95 23.017 20.961 1.093-4.577-2.549-14.505-0.357-20.961-1.093zM582.557-86.658c-40.244 0.388-80.488 0.776-120.732 1.164-8.115 26.224 13.743 21.948 32.345 20.983 29.532-0.285 59.063-0.569 88.595-0.854-0.069-7.098-0.139-14.196-0.208-21.294zM0 555.286c0 41.090 0 82.18 0 123.269 173.495 61.815 346.99 123.63 520.485 185.445 174.686-60.224 349.374-120.441 524.061-180.662 0-42.67 0-85.34 0-128.011-174.673 60.221-349.347 120.441-524.020 180.662-173.509-60.235-347.018-120.469-520.526-180.704zM1023.253 585.189c0 27.657 0 55.313 0 82.97-167.562 57.767-335.123 115.534-502.685 173.301-166.425-59.306-332.85-118.611-499.274-177.917 0-26.104 0-52.208 0-78.312 166.411 57.753 332.822 115.506 499.233 173.259 167.575-57.767 335.151-115.534 502.726-173.301zM824.271 159.205c-21.903-11.196-31.677 22.051-6.333 15.733 11.543 3.864 4.355-10.008 6.333-15.733zM845.232 159.205c-10.955 21.688 31.013 23.009 20.963 1.093-4.584-2.549-14.505-0.357-20.963-1.093zM740.386 159.246c-21.876-11.171-31.759 21.97-6.375 15.721 11.573 3.89 4.411-9.963 6.375-15.721zM761.347 159.246c-10.945 21.674 30.95 23.017 20.961 1.093-4.577-2.549-14.505-0.357-20.961-1.093zM635.499 159.288c-10.945 21.674 30.95 23.017 20.961 1.093-4.577-2.549-14.505-0.357-20.961-1.093zM677.462 159.288c-10.945 21.674 30.95 23.017 20.961 1.093-4.577-2.549-14.505-0.357-20.961-1.093zM530.612 159.329c-21.903-11.196-31.677 22.051-6.333 15.733 11.583 3.867 4.384-9.972 6.333-15.733zM551.614 159.329c-10.945 21.674 30.95 23.017 20.961 1.093-4.577-2.549-14.505-0.357-20.961-1.093zM593.536 159.329c-10.946 21.709 30.986 22.948 21.002 1.051-4.695-2.443-14.504-0.35-21.002-1.051zM446.727 159.371c-21.881-11.178-31.684 21.993-6.333 15.721 11.545 3.888 4.354-10 6.333-15.721zM467.688 159.371c-10.877 21.674 30.985 23.017 21.003 1.093-4.592-2.548-14.532-0.358-21.003-1.093zM341.84 159.413c-10.879 21.674 30.985 23.017 21.002 1.093-4.592-2.548-14.531-0.358-21.002-1.093zM383.803 159.413c-10.955 21.688 31.013 23.009 20.963 1.093-4.584-2.549-14.505-0.357-20.963-1.093zM236.994 159.454c-21.881-11.178-31.684 21.993-6.333 15.721 11.545 3.888 4.354-10 6.333-15.721zM257.955 159.454c-10.946 21.687 30.986 23.009 21.002 1.093-4.592-2.548-14.532-0.358-21.002-1.093zM299.918 159.454c-10.945 21.696 30.95 22.955 20.961 1.051-4.68-2.443-14.477-0.35-20.961-1.051zM174.070 159.496c-10.945 21.674 30.95 23.017 20.961 1.093-4.577-2.549-14.505-0.357-20.961-1.093zM824.271 472.89c-21.903-11.196-31.677 22.051-6.333 15.733 11.543 3.864 4.355-10.008 6.333-15.733zM845.232 472.89c-10.955 21.688 31.013 23.009 20.963 1.093-4.584-2.549-14.505-0.357-20.963-1.093zM740.386 472.931c-21.876-11.171-31.759 21.97-6.375 15.721 11.573 3.89 4.411-9.963 6.375-15.721zM761.347 472.931c-10.945 21.674 30.95 23.017 20.961 1.093-4.577-2.549-14.505-0.357-20.961-1.093zM635.499 472.973c-10.945 21.674 30.95 23.017 20.961 1.093-4.577-2.549-14.505-0.357-20.961-1.093zM677.462 472.973c-10.945 21.674 30.95 23.017 20.961 1.093-4.577-2.549-14.505-0.357-20.961-1.093zM530.612 473.015c-21.903-11.196-31.677 22.051-6.333 15.733 11.583 3.867 4.384-9.972 6.333-15.733zM551.614 473.015c-10.945 21.674 30.95 23.017 20.961 1.093-4.577-2.549-14.505-0.357-20.961-1.093zM593.536 473.015c-10.946 21.709 30.986 22.948 21.002 1.051-4.695-2.443-14.504-0.35-21.002-1.051zM446.727 473.056c-21.881-11.178-31.684 21.993-6.333 15.721 11.545 3.888 4.354-10 6.333-15.721zM467.688 473.056c-10.877 21.674 30.985 23.017 21.003 1.093-4.592-2.548-14.532-0.358-21.003-1.093zM341.84 473.098c-10.879 21.674 30.985 23.017 21.002 1.093-4.592-2.548-14.531-0.358-21.002-1.093zM383.803 473.098c-10.955 21.688 31.013 23.009 20.963 1.093-4.584-2.549-14.505-0.357-20.963-1.093zM236.994 473.139c-21.881-11.178-31.684 21.993-6.333 15.721 11.545 3.888 4.354-10 6.333-15.721zM257.955 473.139c-10.946 21.687 30.986 23.009 21.002 1.093-4.592-2.548-14.532-0.358-21.002-1.093zM299.918 473.139c-10.945 21.696 30.95 22.955 20.961 1.051-4.68-2.443-14.477-0.35-20.961-1.051zM174.070 473.181c-10.945 21.674 30.95 23.017 20.961 1.093-4.577-2.549-14.505-0.357-20.961-1.093zM824.271 317.42c-21.903-11.196-31.677 22.051-6.333 15.733 11.543 3.864 4.355-10.008 6.333-15.733zM845.232 317.42c-10.955 21.688 31.013 23.009 20.963 1.093-4.584-2.549-14.505-0.357-20.963-1.093zM740.386 317.461c-21.876-11.171-31.759 21.97-6.375 15.721 11.573 3.89 4.411-9.963 6.375-15.721zM761.347 317.461c-10.945 21.674 30.95 23.017 20.961 1.093-4.577-2.549-14.505-0.357-20.961-1.093zM635.499 317.503c-10.945 21.674 30.95 23.017 20.961 1.093-4.577-2.549-14.505-0.357-20.961-1.093zM677.462 317.503c-10.945 21.674 30.95 23.017 20.961 1.093-4.577-2.549-14.505-0.357-20.961-1.093zM530.612 317.544c-21.903-11.196-31.677 22.051-6.333 15.733 11.583 3.867 4.384-9.972 6.333-15.733zM551.614 317.544c-10.945 21.674 30.95 23.017 20.961 1.093-4.577-2.549-14.505-0.357-20.961-1.093zM593.536 317.544c-10.946 21.709 30.986 22.948 21.002 1.051-4.695-2.443-14.504-0.35-21.002-1.051zM446.727 317.586c-21.881-11.178-31.684 21.993-6.333 15.721 11.545 3.888 4.354-10 6.333-15.721zM467.688 317.586c-10.877 21.674 30.985 23.017 21.003 1.093-4.592-2.548-14.532-0.358-21.003-1.093zM341.84 317.627c-10.879 21.674 30.985 23.017 21.002 1.093-4.592-2.548-14.531-0.358-21.002-1.093zM383.803 317.627c-10.955 21.688 31.013 23.009 20.963 1.093-4.584-2.549-14.505-0.357-20.963-1.093zM236.994 317.669c-21.881-11.178-31.684 21.993-6.333 15.721 11.545 3.888 4.354-10 6.333-15.721zM257.955 317.669c-10.946 21.687 30.986 23.009 21.002 1.093-4.592-2.548-14.532-0.358-21.002-1.093zM299.918 317.669c-10.945 21.696 30.95 22.955 20.961 1.051-4.68-2.443-14.477-0.35-20.961-1.051zM174.070 317.711c-10.945 21.674 30.95 23.017 20.961 1.093-4.577-2.549-14.505-0.357-20.961-1.093z" />
<glyph unicode="&#xe931;" glyph-name="garageDoorOpen" horiz-adv-x="1046" d="M28.165-159.999c0 247.616 0 495.231 0 742.847 36.404 7.469 16.757-42.663 21.316-64.396 0-219.045 0-438.090 0-657.136 29.656 0 59.312 0 88.968 0 0 209.217 0 418.433 0 627.65 36.404 7.469 16.757-42.663 21.316-64.396 0-194.857 0-389.714 0-584.57-43.867 0-87.733 0-131.6 0zM882.369-159.999c0 216.322 0 432.644 0 648.966 36.404 7.469 16.757-42.663 21.316-64.396 0-187.751 0-375.503 0-563.254 29.656 0 59.312 0 88.968 0 0 240.51 0 481.021 0 721.531 36.404 7.469 16.757-42.663 21.316-64.396 0-226.15 0-452.301 0-678.451-43.867 0-87.733 0-131.6 0zM890.289 311.165c-247.963 0.389-495.925 0.777-743.888 1.166-7.466 36.415 42.667 16.69 64.396 21.215 226.511-0.355 453.023-0.71 679.534-1.065l-0.042-21.316zM822.887 471.698c-54.554-8.616 7.931 44.273 0 0zM843.87 471.698c-2.497 41.92 47.462-9.567 0 0zM738.914 471.74c-54.609-8.622 7.911 44.24 0 0zM759.897 471.74c-2.515 41.916 47.446-9.576 0 0zM633.917 471.781c-2.515 41.916 47.446-9.576 0 0zM675.924 471.781c-2.515 41.916 47.446-9.576 0 0zM528.92 471.823c-54.603-8.595 8.010 44.269 0 0zM549.945 471.823c-2.515 41.916 47.446-9.576 0 0zM591.91 471.823c-4.291 41.245 51.389-7.343 0 0zM444.948 471.865c-54.545-8.621 7.946 44.241 0 0zM465.931 471.865c-2.406 41.928 47.472-9.611 0 0zM339.951 471.906c-2.409 41.928 47.471-9.61 0 0zM381.958 471.906c-2.497 41.92 47.462-9.567 0 0zM234.996 471.948c-54.545-8.621 7.946 44.241 0 0zM255.978 471.948c-2.492 41.934 47.51-9.605 0 0zM297.986 471.948c-4.312 41.228 51.321-7.317 0 0zM172.006 471.99c-2.515 41.916 47.446-9.576 0 0zM0 554.963c0 41.133 0 82.266 0 123.398 173.676 61.88 347.353 123.759 521.029 185.639 174.869-60.287 349.74-120.567 524.61-180.851 0-42.715 0-85.43 0-128.145-174.856 60.284-349.712 120.567-524.568 180.851-173.69-60.298-347.381-120.595-521.071-180.893zM1024.324 584.897c0 27.686 0 55.371 0 83.057-167.737 57.827-335.474 115.655-503.211 173.482-166.599-59.368-333.198-118.736-499.797-178.103 0-26.131 0-52.263 0-78.394 166.585 57.814 333.17 115.627 499.755 173.441 167.751-57.827 335.502-115.655 503.252-173.482zM580.897 385.771c-40.272 0.389-80.545 0.777-120.817 1.166-7.181 36.475 42.796 16.346 64.559 20.695 18.822-0.182 37.644-0.363 56.466-0.545l-0.208-21.316z" />
<glyph unicode="&#xe932;" glyph-name="garageDoorPartiallyOpen" horiz-adv-x="1046" d="M28.165-159.999c0 247.616 0 495.231 0 742.847 26.159 8.321 22.107-13.569 21.316-32.198 0-229.778 0-459.556 0-689.333 29.656 0 59.312 0 88.968 0 0 209.217 0 418.433 0 627.65 26.159 8.321 22.107-13.569 21.316-32.198 0-205.589 0-411.179 0-616.768-43.867 0-87.733 0-131.6 0zM882.369-159.999c0 216.322 0 432.644 0 648.966 26.159 8.321 22.107-13.569 21.316-32.198 0-198.484 0-396.968 0-595.452 29.656 0 59.312 0 88.968 0 0 240.51 0 481.021 0 721.531 26.159 8.321 22.107-13.569 21.316-32.198 0-236.883 0-473.766 0-710.649-43.867 0-87.733 0-131.6 0zM892.527 153.876c-247.963 0.389-495.925 0.777-743.888 1.166-8.321 26.172 13.569 22.085 32.198 21.265 237.244-0.372 474.488-0.744 711.732-1.115-0.014-7.105-0.028-14.211-0.043-21.316zM825.123 314.411c-21.917-11.202-31.712 22.064-6.347 15.75 11.558 3.867 4.372-10.011 6.347-15.75zM846.105 314.411c-10.964 21.705 31.035 23.034 20.985 1.102-4.57-2.571-14.525-0.359-20.985-1.102zM741.15 314.453c-21.891-11.178-31.795 21.983-6.389 15.737 11.587 3.893 4.427-9.966 6.389-15.737zM762.133 314.453c-10.954 21.692 30.972 23.041 20.983 1.102-4.563-2.57-14.525-0.359-20.983-1.102zM636.153 314.494c-10.954 21.692 30.972 23.041 20.983 1.102-4.563-2.57-14.525-0.359-20.983-1.102zM678.16 314.494c-10.954 21.692 30.972 23.041 20.983 1.102-4.563-2.57-14.525-0.359-20.983-1.102zM531.156 314.536c-21.917-11.202-31.712 22.064-6.347 15.75 11.598 3.87 4.4-9.975 6.347-15.75zM552.181 314.536c-10.954 21.692 30.972 23.041 20.983 1.102-4.563-2.57-14.525-0.359-20.983-1.102zM594.146 314.536c-10.955 21.727 31.008 22.972 21.024 1.060-4.681-2.464-14.524-0.352-21.024-1.060zM447.184 314.578c-21.896-11.184-31.719 22.006-6.347 15.737 11.56 3.891 4.371-10.003 6.347-15.737zM468.167 314.578c-10.886 21.692 31.008 23.041 21.025 1.102-4.579-2.57-14.552-0.36-21.025-1.102zM342.187 314.619c-10.888 21.692 31.007 23.041 21.024 1.102-4.578-2.57-14.552-0.36-21.024-1.102zM384.194 314.619c-10.964 21.705 31.035 23.034 20.985 1.102-4.57-2.571-14.525-0.359-20.985-1.102zM237.232 314.661c-21.896-11.184-31.719 22.006-6.347 15.737 11.56 3.891 4.371-10.003 6.347-15.737zM258.214 314.661c-10.955 21.705 31.008 23.034 21.024 1.102-4.578-2.57-14.552-0.36-21.024-1.102zM300.221 314.661c-10.954 21.713 30.972 22.98 20.983 1.060-4.666-2.465-14.497-0.352-20.983-1.060zM174.242 314.703c-10.954 21.692 30.972 23.041 20.983 1.102-4.563-2.57-14.525-0.359-20.983-1.102zM0 554.963c0 41.133 0 82.266 0 123.398 173.676 61.88 347.353 123.759 521.029 185.639 174.869-60.287 349.74-120.567 524.61-180.851 0-42.715 0-85.43 0-128.145-174.856 60.284-349.712 120.567-524.568 180.851-173.69-60.298-347.381-120.595-521.071-180.893zM1024.323 584.897c0 27.686 0 55.371 0 83.057-167.737 57.827-335.474 115.655-503.211 173.482-166.599-59.368-333.198-118.736-499.797-178.103 0-26.131 0-52.263 0-78.394 166.585 57.814 333.17 115.627 499.755 173.441 167.751-57.827 335.502-115.655 503.252-173.482zM829.599 472.48c-21.917-11.202-31.712 22.064-6.347 15.75 11.558 3.867 4.372-10.011 6.347-15.75zM850.582 472.48c-10.964 21.705 31.035 23.034 20.985 1.102-4.57-2.571-14.525-0.359-20.985-1.102zM745.627 472.522c-21.891-11.178-31.795 21.983-6.389 15.737 11.587 3.893 4.427-9.966 6.389-15.737zM766.609 472.522c-10.954 21.692 30.972 23.041 20.983 1.102-4.563-2.57-14.525-0.359-20.983-1.102zM640.63 472.564c-10.954 21.692 30.972 23.041 20.983 1.102-4.563-2.57-14.525-0.359-20.983-1.102zM682.637 472.564c-10.954 21.692 30.972 23.041 20.983 1.102-4.563-2.57-14.525-0.359-20.983-1.102zM535.633 472.605c-21.917-11.202-31.712 22.064-6.347 15.75 11.598 3.87 4.4-9.975 6.347-15.75zM556.657 472.605c-10.954 21.692 30.972 23.041 20.983 1.102-4.563-2.57-14.525-0.359-20.983-1.102zM598.623 472.605c-10.955 21.727 31.008 22.972 21.024 1.060-4.681-2.464-14.524-0.352-21.024-1.060zM451.66 472.647c-21.896-11.184-31.719 22.006-6.347 15.737 11.56 3.891 4.371-10.003 6.347-15.737zM472.643 472.647c-10.886 21.692 31.008 23.041 21.025 1.102-4.579-2.57-14.552-0.36-21.025-1.102zM346.663 472.689c-10.888 21.692 31.007 23.041 21.024 1.102-4.578-2.57-14.552-0.36-21.024-1.102zM388.67 472.689c-10.964 21.705 31.035 23.034 20.985 1.102-4.57-2.571-14.525-0.359-20.985-1.102zM241.708 472.73c-21.896-11.184-31.719 22.006-6.347 15.737 11.56 3.891 4.371-10.003 6.347-15.737zM262.691 472.73c-10.955 21.705 31.008 23.034 21.024 1.102-4.578-2.57-14.552-0.36-21.024-1.102zM304.698 472.73c-10.954 21.713 30.972 22.98 20.983 1.060-4.666-2.465-14.497-0.352-20.983-1.060zM178.718 472.772c-10.954 21.692 30.972 23.041 20.983 1.102-4.563-2.57-14.525-0.359-20.983-1.102zM583.177 227.307c-40.286 0.389-80.573 0.777-120.859 1.166-8.116 26.239 13.741 21.976 32.363 21.005 29.568-0.285 59.136-0.57 88.704-0.855-0.069-7.105-0.139-14.211-0.208-21.316z" />
<glyph unicode="&#xf002;" glyph-name="search" horiz-adv-x="951" d="M658.286 388.571q0 105.714-75.143 180.857t-180.857 75.143-180.857-75.143-75.143-180.857 75.143-180.857 180.857-75.143 180.857 75.143 75.143 180.857zM950.857-86.857q0-29.714-21.714-51.429t-51.429-21.714q-30.857 0-51.429 21.714l-196 195.429q-102.286-70.857-228-70.857-81.714 0-156.286 31.714t-128.571 85.714-85.714 128.571-31.714 156.286 31.714 156.286 85.714 128.571 128.571 85.714 156.286 31.714 156.286-31.714 128.571-85.714 85.714-128.571 31.714-156.286q0-125.714-70.857-228l196-196q21.143-21.143 21.143-51.429z" />
<glyph unicode="&#xf003;" glyph-name="envelope" d="M950.857 4.571v438.857q-18.286-20.571-39.429-37.714-153.143-117.714-243.429-193.143-29.143-24.571-47.429-38.286t-49.429-27.714-58.571-14h-1.143q-27.429 0-58.571 14t-49.429 27.714-47.429 38.286q-90.286 75.429-243.429 193.143-21.143 17.143-39.429 37.714v-438.857q0-7.429 5.429-12.857t12.857-5.429h841.143q7.429 0 12.857 5.429t5.429 12.857zM950.857 605.143v14t-0.286 7.429-1.714 7.143-3.143 5.143-5.143 4.286-8 1.429h-841.143q-7.429 0-12.857-5.429t-5.429-12.857q0-96 84-162.286 110.286-86.857 229.143-181.143 3.429-2.857 20-16.857t26.286-21.429 25.429-18 28.857-15.714 24.571-5.143h1.143q11.429 0 24.571 5.143t28.857 15.714 25.429 18 26.286 21.429 20 16.857q118.857 94.286 229.143 181.143 30.857 24.571 57.429 66t26.571 75.143zM1024 626.286v-621.714q0-37.714-26.857-64.571t-64.571-26.857h-841.143q-37.714 0-64.571 26.857t-26.857 64.571v621.714q0 37.714 26.857 64.571t64.571 26.857h841.143q37.714 0 64.571-26.857t26.857-64.571z" />
<glyph unicode="&#xf004;" glyph-name="heart" d="M512-86.857q-14.857 0-25.143 10.286l-356.571 344q-5.714 4.571-15.714 14.857t-31.714 37.429-38.857 55.714-30.571 69.143-13.429 78.857q0 125.714 72.571 196.571t200.571 70.857q35.429 0 72.286-12.286t68.571-33.143 54.571-39.143 43.429-38.857q20.571 20.571 43.429 38.857t54.571 39.143 68.571 33.143 72.286 12.286q128 0 200.571-70.857t72.571-196.571q0-126.286-130.857-257.143l-356-342.857q-10.286-10.286-25.143-10.286z" />
<glyph unicode="&#xf005;" glyph-name="star" horiz-adv-x="951" d="M950.857 494.286q0-12.571-14.857-27.429l-207.429-202.286 49.143-285.714q0.571-4 0.571-11.429 0-12-6-20.286t-17.429-8.286q-10.857 0-22.857 6.857l-256.571 134.857-256.571-134.857q-12.571-6.857-22.857-6.857-12 0-18 8.286t-6 20.286q0 3.429 1.143 11.429l49.143 285.714-208 202.286q-14.286 15.429-14.286 27.429 0 21.143 32 26.286l286.857 41.714 128.571 260q10.857 23.429 28 23.429t28-23.429l128.571-260 286.857-41.714q32-5.143 32-26.286z" />
<glyph unicode="&#xf006;" glyph-name="star_empty" horiz-adv-x="951" d="M649.714 290.286l174.857 169.714-241.143 35.429-108 218.286-108-218.286-241.143-35.429 174.857-169.714-41.714-240.571 216 113.714 215.429-113.714zM950.857 494.286q0-12.571-14.857-27.429l-207.429-202.286 49.143-285.714q0.571-4 0.571-11.429 0-28.571-23.429-28.571-10.857 0-22.857 6.857l-256.571 134.857-256.571-134.857q-12.571-6.857-22.857-6.857-12 0-18 8.286t-6 20.286q0 3.429 1.143 11.429l49.143 285.714-208 202.286q-14.286 15.429-14.286 27.429 0 21.143 32 26.286l286.857 41.714 128.571 260q10.857 23.429 28 23.429t28-23.429l128.571-260 286.857-41.714q32-5.143 32-26.286z" />
<glyph unicode="&#xf007;" glyph-name="user" horiz-adv-x="731" d="M731.429 64.571q0-62.286-35.714-106.857t-86-44.571h-488q-50.286 0-86 44.571t-35.714 106.857q0 48.571 4.857 91.714t18 86.857 33.429 74.857 53.714 50.857 76.857 19.714q74.857-73.143 178.857-73.143t178.857 73.143q43.429 0 76.857-19.714t53.714-50.857 33.429-74.857 18-86.857 4.857-91.714zM585.143 571.429q0-90.857-64.286-155.143t-155.143-64.286-155.143 64.286-64.286 155.143 64.286 155.143 155.143 64.286 155.143-64.286 64.286-155.143z" />
<glyph unicode="&#xf009;" glyph-name="th_large" horiz-adv-x="951" d="M438.857 278.857v-219.429q0-29.714-21.714-51.429t-51.429-21.714h-292.571q-29.714 0-51.429 21.714t-21.714 51.429v219.429q0 29.714 21.714 51.429t51.429 21.714h292.571q29.714 0 51.429-21.714t21.714-51.429zM438.857 717.714v-219.429q0-29.714-21.714-51.429t-51.429-21.714h-292.571q-29.714 0-51.429 21.714t-21.714 51.429v219.429q0 29.714 21.714 51.429t51.429 21.714h292.571q29.714 0 51.429-21.714t21.714-51.429zM950.857 278.857v-219.429q0-29.714-21.714-51.429t-51.429-21.714h-292.571q-29.714 0-51.429 21.714t-21.714 51.429v219.429q0 29.714 21.714 51.429t51.429 21.714h292.571q29.714 0 51.429-21.714t21.714-51.429zM950.857 717.714v-219.429q0-29.714-21.714-51.429t-51.429-21.714h-292.571q-29.714 0-51.429 21.714t-21.714 51.429v219.429q0 29.714 21.714 51.429t51.429 21.714h292.571q29.714 0 51.429-21.714t21.714-51.429z" />
<glyph unicode="&#xf00a;" glyph-name="th" d="M292.571 150.857v-109.714q0-22.857-16-38.857t-38.857-16h-182.857q-22.857 0-38.857 16t-16 38.857v109.714q0 22.857 16 38.857t38.857 16h182.857q22.857 0 38.857-16t16-38.857zM292.571 443.429v-109.714q0-22.857-16-38.857t-38.857-16h-182.857q-22.857 0-38.857 16t-16 38.857v109.714q0 22.857 16 38.857t38.857 16h182.857q22.857 0 38.857-16t16-38.857zM658.286 150.857v-109.714q0-22.857-16-38.857t-38.857-16h-182.857q-22.857 0-38.857 16t-16 38.857v109.714q0 22.857 16 38.857t38.857 16h182.857q22.857 0 38.857-16t16-38.857zM292.571 736v-109.714q0-22.857-16-38.857t-38.857-16h-182.857q-22.857 0-38.857 16t-16 38.857v109.714q0 22.857 16 38.857t38.857 16h182.857q22.857 0 38.857-16t16-38.857zM658.286 443.429v-109.714q0-22.857-16-38.857t-38.857-16h-182.857q-22.857 0-38.857 16t-16 38.857v109.714q0 22.857 16 38.857t38.857 16h182.857q22.857 0 38.857-16t16-38.857zM1024 150.857v-109.714q0-22.857-16-38.857t-38.857-16h-182.857q-22.857 0-38.857 16t-16 38.857v109.714q0 22.857 16 38.857t38.857 16h182.857q22.857 0 38.857-16t16-38.857zM658.286 736v-109.714q0-22.857-16-38.857t-38.857-16h-182.857q-22.857 0-38.857 16t-16 38.857v109.714q0 22.857 16 38.857t38.857 16h182.857q22.857 0 38.857-16t16-38.857zM1024 443.429v-109.714q0-22.857-16-38.857t-38.857-16h-182.857q-22.857 0-38.857 16t-16 38.857v109.714q0 22.857 16 38.857t38.857 16h182.857q22.857 0 38.857-16t16-38.857zM1024 736v-109.714q0-22.857-16-38.857t-38.857-16h-182.857q-22.857 0-38.857 16t-16 38.857v109.714q0 22.857 16 38.857t38.857 16h182.857q22.857 0 38.857-16t16-38.857z" />
<glyph unicode="&#xf00b;" glyph-name="th_list" d="M292.571 150.857v-109.714q0-22.857-16-38.857t-38.857-16h-182.857q-22.857 0-38.857 16t-16 38.857v109.714q0 22.857 16 38.857t38.857 16h182.857q22.857 0 38.857-16t16-38.857zM292.571 443.429v-109.714q0-22.857-16-38.857t-38.857-16h-182.857q-22.857 0-38.857 16t-16 38.857v109.714q0 22.857 16 38.857t38.857 16h182.857q22.857 0 38.857-16t16-38.857zM1024 150.857v-109.714q0-22.857-16-38.857t-38.857-16h-548.571q-22.857 0-38.857 16t-16 38.857v109.714q0 22.857 16 38.857t38.857 16h548.571q22.857 0 38.857-16t16-38.857zM292.571 736v-109.714q0-22.857-16-38.857t-38.857-16h-182.857q-22.857 0-38.857 16t-16 38.857v109.714q0 22.857 16 38.857t38.857 16h182.857q22.857 0 38.857-16t16-38.857zM1024 443.429v-109.714q0-22.857-16-38.857t-38.857-16h-548.571q-22.857 0-38.857 16t-16 38.857v109.714q0 22.857 16 38.857t38.857 16h548.571q22.857 0 38.857-16t16-38.857zM1024 736v-109.714q0-22.857-16-38.857t-38.857-16h-548.571q-22.857 0-38.857 16t-16 38.857v109.714q0 22.857 16 38.857t38.857 16h548.571q22.857 0 38.857-16t16-38.857z" />
<glyph unicode="&#xf00c;" glyph-name="ok" d="M954.857 540.571q0-22.857-16-38.857l-491.429-491.429q-16-16-38.857-16t-38.857 16l-284.571 284.571q-16 16-16 38.857t16 38.857l77.714 77.714q16 16 38.857 16t38.857-16l168-168.571 374.857 375.429q16 16 38.857 16t38.857-16l77.714-77.714q16-16 16-38.857z" />
<glyph unicode="&#xf00d;" glyph-name="remove" horiz-adv-x="805" d="M741.714 108.571q0-22.857-16-38.857l-77.714-77.714q-16-16-38.857-16t-38.857 16l-168 168-168-168q-16-16-38.857-16t-38.857 16l-77.714 77.714q-16 16-16 38.857t16 38.857l168 168-168 168q-16 16-16 38.857t16 38.857l77.714 77.714q16 16 38.857 16t38.857-16l168-168 168 168q16 16 38.857 16t38.857-16l77.714-77.714q16-16 16-38.857t-16-38.857l-168-168 168-168q16-16 16-38.857z" />
<glyph unicode="&#xf00e;" glyph-name="zoom_in" horiz-adv-x="951" d="M585.143 406.857v-36.571q0-7.429-5.429-12.857t-12.857-5.429h-128v-128q0-7.429-5.429-12.857t-12.857-5.429h-36.571q-7.429 0-12.857 5.429t-5.429 12.857v128h-128q-7.429 0-12.857 5.429t-5.429 12.857v36.571q0 7.429 5.429 12.857t12.857 5.429h128v128q0 7.429 5.429 12.857t12.857 5.429h36.571q7.429 0 12.857-5.429t5.429-12.857v-128h128q7.429 0 12.857-5.429t5.429-12.857zM658.286 388.571q0 105.714-75.143 180.857t-180.857 75.143-180.857-75.143-75.143-180.857 75.143-180.857 180.857-75.143 180.857 75.143 75.143 180.857zM950.857-86.857q0-30.286-21.429-51.714t-51.714-21.429q-30.857 0-51.429 21.714l-196 195.429q-102.286-70.857-228-70.857-81.714 0-156.286 31.714t-128.571 85.714-85.714 128.571-31.714 156.286 31.714 156.286 85.714 128.571 128.571 85.714 156.286 31.714 156.286-31.714 128.571-85.714 85.714-128.571 31.714-156.286q0-125.714-70.857-228l196-196q21.143-21.143 21.143-51.429z" />
<glyph unicode="&#xf010;" glyph-name="zoom_out" horiz-adv-x="951" d="M585.143 406.857v-36.571q0-7.429-5.429-12.857t-12.857-5.429h-329.143q-7.429 0-12.857 5.429t-5.429 12.857v36.571q0 7.429 5.429 12.857t12.857 5.429h329.143q7.429 0 12.857-5.429t5.429-12.857zM658.286 388.571q0 105.714-75.143 180.857t-180.857 75.143-180.857-75.143-75.143-180.857 75.143-180.857 180.857-75.143 180.857 75.143 75.143 180.857zM950.857-86.857q0-30.286-21.429-51.714t-51.714-21.429q-30.857 0-51.429 21.714l-196 195.429q-102.286-70.857-228-70.857-81.714 0-156.286 31.714t-128.571 85.714-85.714 128.571-31.714 156.286 31.714 156.286 85.714 128.571 128.571 85.714 156.286 31.714 156.286-31.714 128.571-85.714 85.714-128.571 31.714-156.286q0-125.714-70.857-228l196-196q21.143-21.143 21.143-51.429z" />
<glyph unicode="&#xf011;" glyph-name="off" d="M877.714 352q0-89.143-34.857-170.286t-93.714-140-140-93.714-170.286-34.857-170.286 34.857-140 93.714-93.714 140-34.857 170.286q0 104 46 196t129.429 154.286q24.571 18.286 54.571 14.286t47.714-28.571q18.286-24 14-54t-28.286-48.286q-56-42.286-86.571-103.429t-30.571-130.286q0-59.429 23.143-113.429t62.571-93.429 93.429-62.571 113.429-23.143 113.429 23.143 93.429 62.571 62.571 93.429 23.143 113.429q0 69.143-30.571 130.286t-86.571 103.429q-24 18.286-28.286 48.286t14 54q17.714 24.571 48 28.571t54.286-14.286q83.429-62.286 129.429-154.286t46-196zM512 790.857v-365.714q0-29.714-21.714-51.429t-51.429-21.714-51.429 21.714-21.714 51.429v365.714q0 29.714 21.714 51.429t51.429 21.714 51.429-21.714 21.714-51.429z" />
<glyph unicode="&#xf012;" glyph-name="signal" d="M146.286 41.143v-109.714q0-8-5.143-13.143t-13.143-5.143h-109.714q-8 0-13.143 5.143t-5.143 13.143v109.714q0 8 5.143 13.143t13.143 5.143h109.714q8 0 13.143-5.143t5.143-13.143zM365.714 114.286v-182.857q0-8-5.143-13.143t-13.143-5.143h-109.714q-8 0-13.143 5.143t-5.143 13.143v182.857q0 8 5.143 13.143t13.143 5.143h109.714q8 0 13.143-5.143t5.143-13.143zM585.143 260.571v-329.143q0-8-5.143-13.143t-13.143-5.143h-109.714q-8 0-13.143 5.143t-5.143 13.143v329.143q0 8 5.143 13.143t13.143 5.143h109.714q8 0 13.143-5.143t5.143-13.143zM804.571 480v-548.571q0-8-5.143-13.143t-13.143-5.143h-109.714q-8 0-13.143 5.143t-5.143 13.143v548.571q0 8 5.143 13.143t13.143 5.143h109.714q8 0 13.143-5.143t5.143-13.143zM1024 772.571v-841.143q0-8-5.143-13.143t-13.143-5.143h-109.714q-8 0-13.143 5.143t-5.143 13.143v841.143q0 8 5.143 13.143t13.143 5.143h109.714q8 0 13.143-5.143t5.143-13.143z" />
<glyph unicode="&#xf013;" glyph-name="cog" d="M585.143 352q0 60.571-42.857 103.429t-103.429 42.857-103.429-42.857-42.857-103.429 42.857-103.429 103.429-42.857 103.429 42.857 42.857 103.429zM877.714 414.286v-126.857q0-6.857-4.571-13.143t-11.429-7.429l-105.714-16q-10.857-30.857-22.286-52 20-28.571 61.143-78.857 5.714-6.857 5.714-14.286t-5.143-13.143q-15.429-21.143-56.571-61.714t-53.714-40.571q-6.857 0-14.857 5.143l-78.857 61.714q-25.143-13.143-52-21.714-9.143-77.714-16.571-106.286-4-16-20.571-16h-126.857q-8 0-14 4.857t-6.571 12.286l-16 105.143q-28 9.143-51.429 21.143l-80.571-61.143q-5.714-5.143-14.286-5.143-8 0-14.286 6.286-72 65.143-94.286 96-4 5.714-4 13.143 0 6.857 4.571 13.143 8.571 12 29.143 38t30.857 40.286q-15.429 28.571-23.429 56.571l-104.571 15.429q-7.429 1.143-12 7.143t-4.571 13.429v126.857q0 6.857 4.571 13.143t10.857 7.429l106.286 16q8 26.286 22.286 52.571-22.857 32.571-61.143 78.857-5.714 6.857-5.714 13.714 0 5.714 5.143 13.143 14.857 20.571 56.286 61.429t54 40.857q7.429 0 14.857-5.714l78.857-61.143q25.143 13.143 52 21.714 9.143 77.714 16.571 106.286 4 16 20.571 16h126.857q8 0 14-4.857t6.571-12.286l16-105.143q28-9.143 51.429-21.143l81.143 61.143q5.143 5.143 13.714 5.143 7.429 0 14.286-5.714 73.714-68 94.286-97.143 4-4.571 4-12.571 0-6.857-4.571-13.143-8.571-12-29.143-38t-30.857-40.286q14.857-28.571 23.429-56l104.571-16q7.429-1.143 12-7.143t4.571-13.429z" />
<glyph unicode="&#xf014;" glyph-name="trash" horiz-adv-x="805" d="M292.571 443.429v-329.143q0-8-5.143-13.143t-13.143-5.143h-36.571q-8 0-13.143 5.143t-5.143 13.143v329.143q0 8 5.143 13.143t13.143 5.143h36.571q8 0 13.143-5.143t5.143-13.143zM438.857 443.429v-329.143q0-8-5.143-13.143t-13.143-5.143h-36.571q-8 0-13.143 5.143t-5.143 13.143v329.143q0 8 5.143 13.143t13.143 5.143h36.571q8 0 13.143-5.143t5.143-13.143zM585.143 443.429v-329.143q0-8-5.143-13.143t-13.143-5.143h-36.571q-8 0-13.143 5.143t-5.143 13.143v329.143q0 8 5.143 13.143t13.143 5.143h36.571q8 0 13.143-5.143t5.143-13.143zM658.286 29.714v541.714h-512v-541.714q0-12.571 4-23.143t8.286-15.429 6-4.857h475.429q1.714 0 6 4.857t8.286 15.429 4 23.143zM274.286 644.571h256l-27.429 66.857q-4 5.143-9.714 6.286h-181.143q-5.714-1.143-9.714-6.286zM804.571 626.286v-36.571q0-8-5.143-13.143t-13.143-5.143h-54.857v-541.714q0-47.429-26.857-82t-64.571-34.571h-475.429q-37.714 0-64.571 33.429t-26.857 80.857v544h-54.857q-8 0-13.143 5.143t-5.143 13.143v36.571q0 8 5.143 13.143t13.143 5.143h176.571l40 95.429q8.571 21.143 30.857 36t45.143 14.857h182.857q22.857 0 45.143-14.857t30.857-36l40-95.429h176.571q8 0 13.143-5.143t5.143-13.143z" />
<glyph unicode="&#xf015;" glyph-name="home" horiz-adv-x="951" d="M804.571 297.143v-274.286q0-14.857-10.857-25.714t-25.714-10.857h-219.429v219.429h-146.286v-219.429h-219.429q-14.857 0-25.714 10.857t-10.857 25.714v274.286q0 0.571 0.286 1.714t0.286 1.714l328.571 270.857 328.571-270.857q0.571-1.143 0.571-3.429zM932 336.571l-35.429-42.286q-4.571-5.143-12-6.286h-1.714q-7.429 0-12 4l-395.429 329.714-395.429-329.714q-6.857-4.571-13.714-4-7.429 1.143-12 6.286l-35.429 42.286q-4.571 5.714-4 13.429t6.286 12.286l410.857 342.286q18.286 14.857 43.429 14.857t43.429-14.857l139.429-116.571v111.429q0 8 5.143 13.143t13.143 5.143h109.714q8 0 13.143-5.143t5.143-13.143v-233.143l125.143-104q5.714-4.571 6.286-12.286t-4-13.429z" />
<glyph unicode="&#xf017;" glyph-name="time" d="M512 553.143v-256q0-8-5.143-13.143t-13.143-5.143h-182.857q-8 0-13.143 5.143t-5.143 13.143v36.571q0 8 5.143 13.143t13.143 5.143h128v201.143q0 8 5.143 13.143t13.143 5.143h36.571q8 0 13.143-5.143t5.143-13.143zM749.714 352q0 84.571-41.714 156t-113.143 113.143-156 41.714-156-41.714-113.143-113.143-41.714-156 41.714-156 113.143-113.143 156-41.714 156 41.714 113.143 113.143 41.714 156zM877.714 352q0-119.429-58.857-220.286t-159.714-159.714-220.286-58.857-220.286 58.857-159.714 159.714-58.857 220.286 58.857 220.286 159.714 159.714 220.286 58.857 220.286-58.857 159.714-159.714 58.857-220.286z" />
<glyph unicode="&#xf019;" glyph-name="download_alt" horiz-adv-x="951" d="M731.429 96q0 14.857-10.857 25.714t-25.714 10.857-25.714-10.857-10.857-25.714 10.857-25.714 25.714-10.857 25.714 10.857 10.857 25.714zM877.714 96q0 14.857-10.857 25.714t-25.714 10.857-25.714-10.857-10.857-25.714 10.857-25.714 25.714-10.857 25.714 10.857 10.857 25.714zM950.857 224v-182.857q0-22.857-16-38.857t-38.857-16h-841.143q-22.857 0-38.857 16t-16 38.857v182.857q0 22.857 16 38.857t38.857 16h265.714l77.143-77.714q33.143-32 77.714-32t77.714 32l77.714 77.714h265.143q22.857 0 38.857-16t16-38.857zM765.143 549.143q9.714-23.429-8-40l-256-256q-10.286-10.857-25.714-10.857t-25.714 10.857l-256 256q-17.714 16.571-8 40 9.714 22.286 33.714 22.286h146.286v256q0 14.857 10.857 25.714t25.714 10.857h146.286q14.857 0 25.714-10.857t10.857-25.714v-256h146.286q24 0 33.714-22.286z" />
<glyph unicode="&#xf01a;" glyph-name="download" d="M640 333.714q0-6.857-5.714-13.714l-182.286-182.286q-6.286-5.143-13.143-5.143t-13.143 5.143l-182.857 182.857q-8.571 9.143-4 20 4.571 11.429 17.143 11.429h109.714v201.143q0 8 5.143 13.143t13.143 5.143h109.714q8 0 13.143-5.143t5.143-13.143v-201.143h109.714q8 0 13.143-5.143t5.143-13.143zM438.857 662.857q-84.571 0-156-41.714t-113.143-113.143-41.714-156 41.714-156 113.143-113.143 156-41.714 156 41.714 113.143 113.143 41.714 156-41.714 156-113.143 113.143-156 41.714zM877.714 352q0-119.429-58.857-220.286t-159.714-159.714-220.286-58.857-220.286 58.857-159.714 159.714-58.857 220.286 58.857 220.286 159.714 159.714 220.286 58.857 220.286-58.857 159.714-159.714 58.857-220.286z" />
<glyph unicode="&#xf01b;" glyph-name="upload" d="M638.857 363.429q-4.571-11.429-17.143-11.429h-109.714v-201.143q0-8-5.143-13.143t-13.143-5.143h-109.714q-8 0-13.143 5.143t-5.143 13.143v201.143h-109.714q-8 0-13.143 5.143t-5.143 13.143q0 6.857 5.714 13.714l182.286 182.286q6.286 5.143 13.143 5.143t13.143-5.143l182.857-182.857q8.571-9.143 4-20zM438.857 662.857q-84.571 0-156-41.714t-113.143-113.143-41.714-156 41.714-156 113.143-113.143 156-41.714 156 41.714 113.143 113.143 41.714 156-41.714 156-113.143 113.143-156 41.714zM877.714 352q0-119.429-58.857-220.286t-159.714-159.714-220.286-58.857-220.286 58.857-159.714 159.714-58.857 220.286 58.857 220.286 159.714 159.714 220.286 58.857 220.286-58.857 159.714-159.714 58.857-220.286z" />
<glyph unicode="&#xf01c;" glyph-name="inbox" d="M584.571 315.429h180.571q-0.571 1.714-1.429 4.857t-1.429 4.286l-121.143 283.429h-404.571l-121.143-283.429q-0.571-1.714-1.429-4.857t-1.429-4.286h180.571l54.286-109.714h182.857zM877.714 298.286v-275.429q0-14.857-10.857-25.714t-25.714-10.857h-804.571q-14.857 0-25.714 10.857t-10.857 25.714v275.429q0 35.429 14.286 70.286l136 315.429q5.714 14.286 20.857 24t30 9.714h475.429q14.857 0 30-9.714t20.857-24l136-315.429q14.286-34.857 14.286-70.286z" />
<glyph unicode="&#xf01e;" glyph-name="repeat" d="M877.714 717.714v-256q0-14.857-10.857-25.714t-25.714-10.857h-256q-24 0-33.714 22.857-9.714 22.286 8 39.429l78.857 78.857q-84.571 78.286-199.429 78.286-59.429 0-113.429-23.143t-93.429-62.571-62.571-93.429-23.143-113.429 23.143-113.429 62.571-93.429 93.429-62.571 113.429-23.143q68 0 128.571 29.714t102.286 84q4 5.714 13.143 6.857 8.571 0 14.286-5.143l78.286-78.857q5.143-4.571 5.429-11.714t-4.286-12.857q-62.286-75.429-150.857-116.857t-186.857-41.429q-89.143 0-170.286 34.857t-140 93.714-93.714 140-34.857 170.286 34.857 170.286 93.714 140 140 93.714 170.286 34.857q84 0 162.571-31.714t139.714-89.429l74.286 73.714q16.571 17.714 40 8 22.286-9.714 22.286-33.714z" />
<glyph unicode="&#xf021;" glyph-name="refresh" d="M863.429 260.571q0-2.857-0.571-4-36.571-153.143-153.143-248.286t-273.143-95.143q-83.429 0-161.429 31.429t-139.143 89.714l-73.714-73.714q-10.857-10.857-25.714-10.857t-25.714 10.857-10.857 25.714v256q0 14.857 10.857 25.714t25.714 10.857h256q14.857 0 25.714-10.857t10.857-25.714-10.857-25.714l-78.286-78.286q40.571-37.714 92-58.286t106.857-20.571q76.571 0 142.857 37.143t106.286 102.286q6.286 9.714 30.286 66.857 4.571 13.143 17.143 13.143h109.714q7.429 0 12.857-5.429t5.429-12.857zM877.714 717.714v-256q0-14.857-10.857-25.714t-25.714-10.857h-256q-14.857 0-25.714 10.857t-10.857 25.714 10.857 25.714l78.857 78.857q-84.571 78.286-199.429 78.286-76.571 0-142.857-37.143t-106.286-102.286q-6.286-9.714-30.286-66.857-4.571-13.143-17.143-13.143h-113.714q-7.429 0-12.857 5.429t-5.429 12.857v4q37.143 153.143 154.286 248.286t274.286 95.143q83.429 0 162.286-31.714t140-89.429l74.286 73.714q10.857 10.857 25.714 10.857t25.714-10.857 10.857-25.714z" />
<glyph unicode="&#xf022;" glyph-name="list_alt" d="M219.429 187.429v-36.571q0-7.429-5.429-12.857t-12.857-5.429h-36.571q-7.429 0-12.857 5.429t-5.429 12.857v36.571q0 7.429 5.429 12.857t12.857 5.429h36.571q7.429 0 12.857-5.429t5.429-12.857zM219.429 333.714v-36.571q0-7.429-5.429-12.857t-12.857-5.429h-36.571q-7.429 0-12.857 5.429t-5.429 12.857v36.571q0 7.429 5.429 12.857t12.857 5.429h36.571q7.429 0 12.857-5.429t5.429-12.857zM219.429 480v-36.571q0-7.429-5.429-12.857t-12.857-5.429h-36.571q-7.429 0-12.857 5.429t-5.429 12.857v36.571q0 7.429 5.429 12.857t12.857 5.429h36.571q7.429 0 12.857-5.429t5.429-12.857zM877.714 187.429v-36.571q0-7.429-5.429-12.857t-12.857-5.429h-548.571q-7.429 0-12.857 5.429t-5.429 12.857v36.571q0 7.429 5.429 12.857t12.857 5.429h548.571q7.429 0 12.857-5.429t5.429-12.857zM877.714 333.714v-36.571q0-7.429-5.429-12.857t-12.857-5.429h-548.571q-7.429 0-12.857 5.429t-5.429 12.857v36.571q0 7.429 5.429 12.857t12.857 5.429h548.571q7.429 0 12.857-5.429t5.429-12.857zM877.714 480v-36.571q0-7.429-5.429-12.857t-12.857-5.429h-548.571q-7.429 0-12.857 5.429t-5.429 12.857v36.571q0 7.429 5.429 12.857t12.857 5.429h548.571q7.429 0 12.857-5.429t5.429-12.857zM950.857 77.714v475.429q0 7.429-5.429 12.857t-12.857 5.429h-841.143q-7.429 0-12.857-5.429t-5.429-12.857v-475.429q0-7.429 5.429-12.857t12.857-5.429h841.143q7.429 0 12.857 5.429t5.429 12.857zM1024 699.429v-621.714q0-37.714-26.857-64.571t-64.571-26.857h-841.143q-37.714 0-64.571 26.857t-26.857 64.571v621.714q0 37.714 26.857 64.571t64.571 26.857h841.143q37.714 0 64.571-26.857t26.857-64.571z" />
<glyph unicode="&#xf023;" glyph-name="lock" horiz-adv-x="658" d="M182.857 425.143h292.571v109.714q0 60.571-42.857 103.429t-103.429 42.857-103.429-42.857-42.857-103.429v-109.714zM658.286 370.286v-329.143q0-22.857-16-38.857t-38.857-16h-548.571q-22.857 0-38.857 16t-16 38.857v329.143q0 22.857 16 38.857t38.857 16h18.286v109.714q0 105.143 75.429 180.571t180.571 75.429 180.571-75.429 75.429-180.571v-109.714h18.286q22.857 0 38.857-16t16-38.857z" />
<glyph unicode="&#xf024;" glyph-name="flag" d="M182.857 717.714q0-41.143-36.571-62.857v-723.429q0-7.429-5.429-12.857t-12.857-5.429h-36.571q-7.429 0-12.857 5.429t-5.429 12.857v723.429q-36.571 21.714-36.571 62.857 0 30.286 21.429 51.714t51.714 21.429 51.714-21.429 21.429-51.714zM1024 681.143v-436q0-14.286-7.143-22t-22.571-15.714q-122.857-66.286-210.857-66.286-34.857 0-70.571 12.571t-62 27.429-66 27.429-81.429 12.571q-109.714 0-265.143-83.429-9.714-5.143-18.857-5.143-14.857 0-25.714 10.857t-10.857 25.714v424q0 18.286 17.714 31.429 12 8 45.143 24.571 134.857 68.571 240.571 68.571 61.143 0 114.286-16.571t125.143-50.286q21.714-10.857 50.286-10.857 30.857 0 67.143 12t62.857 26.857 50.286 26.857 31.143 12q14.857 0 25.714-10.857t10.857-25.714z" />
<glyph unicode="&#xf026;" glyph-name="volume_off" horiz-adv-x="439" d="M438.857 662.857v-621.714q0-14.857-10.857-25.714t-25.714-10.857-25.714 10.857l-190.286 190.286h-149.714q-14.857 0-25.714 10.857t-10.857 25.714v219.429q0 14.857 10.857 25.714t25.714 10.857h149.714l190.286 190.286q10.857 10.857 25.714 10.857t25.714-10.857 10.857-25.714z" />
<glyph unicode="&#xf027;" glyph-name="volume_down" horiz-adv-x="658" d="M438.857 662.857v-621.714q0-14.857-10.857-25.714t-25.714-10.857-25.714 10.857l-190.286 190.286h-149.714q-14.857 0-25.714 10.857t-10.857 25.714v219.429q0 14.857 10.857 25.714t25.714 10.857h149.714l190.286 190.286q10.857 10.857 25.714 10.857t25.714-10.857 10.857-25.714zM658.286 352q0-43.429-24.286-80.857t-64.286-53.429q-5.714-2.857-14.286-2.857-14.857 0-25.714 10.571t-10.857 26q0 12 6.857 20.286t16.571 14.286 19.429 13.143 16.571 20.571 6.857 32.286-6.857 32.286-16.571 20.571-19.429 13.143-16.571 14.286-6.857 20.286q0 15.429 10.857 26t25.714 10.571q8.571 0 14.286-2.857 40-15.429 64.286-53.143t24.286-81.143z" />
<glyph unicode="&#xf028;" glyph-name="volume_up" horiz-adv-x="951" d="M438.857 662.857v-621.714q0-14.857-10.857-25.714t-25.714-10.857-25.714 10.857l-190.286 190.286h-149.714q-14.857 0-25.714 10.857t-10.857 25.714v219.429q0 14.857 10.857 25.714t25.714 10.857h149.714l190.286 190.286q10.857 10.857 25.714 10.857t25.714-10.857 10.857-25.714zM658.286 352q0-43.429-24.286-80.857t-64.286-53.429q-5.714-2.857-14.286-2.857-14.857 0-25.714 10.571t-10.857 26q0 12 6.857 20.286t16.571 14.286 19.429 13.143 16.571 20.571 6.857 32.286-6.857 32.286-16.571 20.571-19.429 13.143-16.571 14.286-6.857 20.286q0 15.429 10.857 26t25.714 10.571q8.571 0 14.286-2.857 40-15.429 64.286-53.143t24.286-81.143zM804.571 352q0-87.429-48.571-161.429t-128.571-107.714q-7.429-2.857-14.286-2.857-15.429 0-26.286 10.857t-10.857 25.714q0 22.286 22.286 33.714 32 16.571 43.429 25.143 42.286 30.857 66 77.429t23.714 99.143-23.714 99.143-66 77.429q-11.429 8.571-43.429 25.143-22.286 11.429-22.286 33.714 0 14.857 10.857 25.714t25.714 10.857q7.429 0 14.857-2.857 80-33.714 128.571-107.714t48.571-161.429zM950.857 352q0-131.429-72.571-241.429t-193.143-162q-7.429-2.857-14.857-2.857-14.857 0-25.714 10.857t-10.857 25.714q0 20.571 22.286 33.714 4 2.286 12.857 6t12.857 6q26.286 14.286 46.857 29.143 70.286 52 109.714 129.714t39.429 165.143-39.429 165.143-109.714 129.714q-20.571 14.857-46.857 29.143-4 2.286-12.857 6t-12.857 6q-22.286 13.143-22.286 33.714 0 14.857 10.857 25.714t25.714 10.857q7.429 0 14.857-2.857 120.571-52 193.143-162t72.571-241.429z" />
<glyph unicode="&#xf029;" glyph-name="qrcode" horiz-adv-x="805" d="M219.429 205.714v-73.143h-73.143v73.143h73.143zM219.429 644.571v-73.143h-73.143v73.143h73.143zM658.286 644.571v-73.143h-73.143v73.143h73.143zM73.143 60h219.429v218.857h-219.429v-218.857zM73.143 498.286h219.429v219.429h-219.429v-219.429zM512 498.286h219.429v219.429h-219.429v-219.429zM365.714 352v-365.714h-365.714v365.714h365.714zM658.286 59.429v-73.143h-73.143v73.143h73.143zM804.571 59.429v-73.143h-73.143v73.143h73.143zM804.571 352v-219.429h-219.429v73.143h-73.143v-219.429h-73.143v365.714h219.429v-73.143h73.143v73.143h73.143zM365.714 790.857v-365.714h-365.714v365.714h365.714zM804.571 790.857v-365.714h-365.714v365.714h365.714z" />
<glyph unicode="&#xf02a;" glyph-name="barcode" d="M36-13.714h-36v804.571h36v-804.571zM72-13.143h-18.286v804h18.286v-804zM125.714-13.143h-17.714v804h17.714v-804zM215.429-13.143h-17.714v804h17.714v-804zM305.143-13.143h-35.429v804h35.429v-804zM377.143-13.143h-17.714v804h17.714v-804zM413.143-13.143h-17.714v804h17.714v-804zM449.143-13.143h-17.714v804h17.714v-804zM538.857-13.143h-36v804h36v-804zM628.571-13.143h-36v804h36v-804zM700.571-13.143h-36v804h36v-804zM772.571-13.143h-36v804h36v-804zM826.286-13.143h-36v804h36v-804zM934.286-13.143h-53.714v804h53.714v-804zM970.286-13.143h-18.286v804h18.286v-804zM1024-13.714h-36v804.571h36v-804.571z" />
<glyph unicode="&#xf02b;" glyph-name="tag" d="M256 608q0 30.286-21.429 51.714t-51.714 21.429-51.714-21.429-21.429-51.714 21.429-51.714 51.714-21.429 51.714 21.429 21.429 51.714zM865.714 278.857q0-30.286-21.143-51.429l-280.571-281.143q-22.286-21.143-52-21.143-30.286 0-51.429 21.143l-408.571 409.143q-21.714 21.143-36.857 57.714t-15.143 66.857v237.714q0 29.714 21.714 51.429t51.429 21.714h237.714q30.286 0 66.857-15.143t58.286-36.857l408.571-408q21.143-22.286 21.143-52z" />
<glyph unicode="&#xf02c;" glyph-name="tags" horiz-adv-x="1097" d="M256 608q0 30.286-21.429 51.714t-51.714 21.429-51.714-21.429-21.429-51.714 21.429-51.714 51.714-21.429 51.714 21.429 21.429 51.714zM865.714 278.857q0-30.286-21.143-51.429l-280.571-281.143q-22.286-21.143-52-21.143-30.286 0-51.429 21.143l-408.571 409.143q-21.714 21.143-36.857 57.714t-15.143 66.857v237.714q0 29.714 21.714 51.429t51.429 21.714h237.714q30.286 0 66.857-15.143t58.286-36.857l408.571-408q21.143-22.286 21.143-52zM1085.143 278.857q0-30.286-21.143-51.429l-280.571-281.143q-22.286-21.143-52-21.143-20.571 0-33.714 8t-30.286 25.714l268.571 268.571q21.143 21.143 21.143 51.429 0 29.714-21.143 52l-408.571 408q-21.714 21.714-58.286 36.857t-66.857 15.143h128q30.286 0 66.857-15.143t58.286-36.857l408.571-408q21.143-22.286 21.143-52z" />
<glyph unicode="&#xf02d;" glyph-name="book" horiz-adv-x="951" d="M936.571 590.857q22.857-32.571 10.286-73.714l-157.143-517.714q-10.857-36.571-43.714-61.429t-70-24.857h-527.429q-44 0-84.857 30.571t-56.857 75.143q-13.714 38.286-1.143 72.571 0 2.286 1.714 15.429t2.286 21.143q0.571 4.571-1.714 12.286t-1.714 11.143q1.143 6.286 4.571 12t9.429 13.429 9.429 13.429q13.143 21.714 25.714 52.286t17.143 52.286q1.714 5.714 0.286 17.143t-0.286 16q1.714 6.286 9.714 16t9.714 13.143q12 20.571 24 52.571t14.286 51.429q0.571 5.143-1.429 18.286t0.286 16q2.286 7.429 12.571 17.429t12.571 12.857q10.857 14.857 24.286 48.286t15.714 55.143q0.571 4.571-1.714 14.571t-1.143 15.143q1.143 4.571 5.143 10.286t10.286 13.143 9.714 12q4.571 6.857 9.429 17.429t8.571 20 9.143 20.571 11.143 18.286 15.143 13.429 20.571 6.571 27.143-3.143l-0.571-1.714q21.714 5.143 29.143 5.143h434.857q42.286 0 65.143-32t10.286-74.286l-156.571-517.714q-20.571-68-40.857-87.714t-73.429-19.714h-496.571q-15.429 0-21.714-8.571-6.286-9.143-0.571-24.571 13.714-40 82.286-40h527.429q16.571 0 32 8.857t20 23.714l171.429 564q4 12.571 2.857 32.571 21.714-8.571 33.714-24.571zM328.571 589.714q-2.286-7.429 1.143-12.857t11.429-5.429h347.429q7.429 0 14.571 5.429t9.429 12.857l12 36.571q2.286 7.429-1.143 12.857t-11.429 5.429h-347.429q-7.429 0-14.571-5.429t-9.429-12.857zM281.143 443.429q-2.286-7.429 1.143-12.857t11.429-5.429h347.429q7.429 0 14.571 5.429t9.429 12.857l12 36.571q2.286 7.429-1.143 12.857t-11.429 5.429h-347.429q-7.429 0-14.571-5.429t-9.429-12.857z" />
<glyph unicode="&#xf02e;" glyph-name="bookmark" horiz-adv-x="731" d="M665.143 790.857q13.143 0 25.143-5.143 18.857-7.429 30-23.429t11.143-35.429v-736.571q0-19.429-11.143-35.429t-30-23.429q-10.857-4.571-25.143-4.571-27.429 0-47.429 18.286l-252 242.286-252-242.286q-20.571-18.857-47.429-18.857-13.143 0-25.143 5.143-18.857 7.429-30 23.429t-11.143 35.429v736.571q0 19.429 11.143 35.429t30 23.429q12 5.143 25.143 5.143h598.857z" />
<glyph unicode="&#xf02f;" glyph-name="print" horiz-adv-x="951" d="M219.429-13.714h512v146.286h-512v-146.286zM219.429 352h512v219.429h-91.429q-22.857 0-38.857 16t-16 38.857v91.429h-365.714v-365.714zM877.714 315.429q0 14.857-10.857 25.714t-25.714 10.857-25.714-10.857-10.857-25.714 10.857-25.714 25.714-10.857 25.714 10.857 10.857 25.714zM950.857 315.429v-237.714q0-7.429-5.429-12.857t-12.857-5.429h-128v-91.429q0-22.857-16-38.857t-38.857-16h-548.571q-22.857 0-38.857 16t-16 38.857v91.429h-128q-7.429 0-12.857 5.429t-5.429 12.857v237.714q0 45.143 32.286 77.429t77.429 32.286h36.571v310.857q0 22.857 16 38.857t38.857 16h384q22.857 0 50.286-11.429t43.429-27.429l86.857-86.857q16-16 27.429-43.429t11.429-50.286v-146.286h36.571q45.143 0 77.429-32.286t32.286-77.429z" />
<glyph unicode="&#xf030;" glyph-name="camera" horiz-adv-x="1097" d="M548.571 480q68 0 116.286-48.286t48.286-116.286-48.286-116.286-116.286-48.286-116.286 48.286-48.286 116.286 48.286 116.286 116.286 48.286zM950.857 717.714q60.571 0 103.429-42.857t42.857-103.429v-512q0-60.571-42.857-103.429t-103.429-42.857h-804.571q-60.571 0-103.429 42.857t-42.857 103.429v512q0 60.571 42.857 103.429t103.429 42.857h128l29.143 77.714q10.857 28 39.714 48.286t59.143 20.286h292.571q30.286 0 59.143-20.286t39.714-48.286l29.143-77.714h128zM548.571 59.429q105.714 0 180.857 75.143t75.143 180.857-75.143 180.857-180.857 75.143-180.857-75.143-75.143-180.857 75.143-180.857 180.857-75.143z" />
<glyph unicode="&#xf039;" glyph-name="align_justify" d="M1024 96v-73.143q0-14.857-10.857-25.714t-25.714-10.857h-950.857q-14.857 0-25.714 10.857t-10.857 25.714v73.143q0 14.857 10.857 25.714t25.714 10.857h950.857q14.857 0 25.714-10.857t10.857-25.714zM1024 315.429v-73.143q0-14.857-10.857-25.714t-25.714-10.857h-950.857q-14.857 0-25.714 10.857t-10.857 25.714v73.143q0 14.857 10.857 25.714t25.714 10.857h950.857q14.857 0 25.714-10.857t10.857-25.714zM1024 534.857v-73.143q0-14.857-10.857-25.714t-25.714-10.857h-950.857q-14.857 0-25.714 10.857t-10.857 25.714v73.143q0 14.857 10.857 25.714t25.714 10.857h950.857q14.857 0 25.714-10.857t10.857-25.714zM1024 754.286v-73.143q0-14.857-10.857-25.714t-25.714-10.857h-950.857q-14.857 0-25.714 10.857t-10.857 25.714v73.143q0 14.857 10.857 25.714t25.714 10.857h950.857q14.857 0 25.714-10.857t10.857-25.714z" />
<glyph unicode="&#xf03d;" glyph-name="facetime_video" d="M1024 662.857v-621.714q0-24-22.286-33.714-7.429-2.857-14.286-2.857-15.429 0-25.714 10.857l-230.286 230.286v-94.857q0-68-48.286-116.286t-116.286-48.286h-402.286q-68 0-116.286 48.286t-48.286 116.286v402.286q0 68 48.286 116.286t116.286 48.286h402.286q68 0 116.286-48.286t48.286-116.286v-94.286l230.286 229.714q10.286 10.857 25.714 10.857 6.857 0 14.286-2.857 22.286-9.714 22.286-33.714z" />
<glyph unicode="&#xf03e;" glyph-name="picture" horiz-adv-x="1097" d="M365.714 534.857q0-45.714-32-77.714t-77.714-32-77.714 32-32 77.714 32 77.714 77.714 32 77.714-32 32-77.714zM950.857 315.429v-256h-804.571v109.714l182.857 182.857 91.429-91.429 292.571 292.571zM1005.714 717.714h-914.286q-7.429 0-12.857-5.429t-5.429-12.857v-694.857q0-7.429 5.429-12.857t12.857-5.429h914.286q7.429 0 12.857 5.429t5.429 12.857v694.857q0 7.429-5.429 12.857t-12.857 5.429zM1097.143 699.429v-694.857q0-37.714-26.857-64.571t-64.571-26.857h-914.286q-37.714 0-64.571 26.857t-26.857 64.571v694.857q0 37.714 26.857 64.571t64.571 26.857h914.286q37.714 0 64.571-26.857t26.857-64.571z" />
<glyph unicode="&#xf040;" glyph-name="pencil" d="M207.429-13.714l52 52-134.286 134.286-52-52v-61.143h73.143v-73.143h61.143zM506.286 516.571q0 12.571-12.571 12.571-5.714 0-9.714-4l-309.714-309.714q-4-4-4-9.714 0-12.571 12.571-12.571 5.714 0 9.714 4l309.714 309.714q4 4 4 9.714zM475.429 626.286l237.714-237.714-475.429-475.429h-237.714v237.714zM865.714 571.429q0-30.286-21.143-51.429l-94.857-94.857-237.714 237.714 94.857 94.286q20.571 21.714 51.429 21.714 30.286 0 52-21.714l134.286-133.714q21.143-22.286 21.143-52z" />
<glyph unicode="&#xf041;" glyph-name="map_marker" horiz-adv-x="585" d="M438.857 498.286q0 60.571-42.857 103.429t-103.429 42.857-103.429-42.857-42.857-103.429 42.857-103.429 103.429-42.857 103.429 42.857 42.857 103.429zM585.143 498.286q0-62.286-18.857-102.286l-208-442.286q-9.143-18.857-27.143-29.714t-38.571-10.857-38.571 10.857-26.571 29.714l-208.571 442.286q-18.857 40-18.857 102.286 0 121.143 85.714 206.857t206.857 85.714 206.857-85.714 85.714-206.857z" />
<glyph unicode="&#xf042;" glyph-name="adjust" d="M438.857 41.143v621.714q-84.571 0-156-41.714t-113.143-113.143-41.714-156 41.714-156 113.143-113.143 156-41.714zM877.714 352q0-119.429-58.857-220.286t-159.714-159.714-220.286-58.857-220.286 58.857-159.714 159.714-58.857 220.286 58.857 220.286 159.714 159.714 220.286 58.857 220.286-58.857 159.714-159.714 58.857-220.286z" />
<glyph unicode="&#xf043;" glyph-name="tint" horiz-adv-x="585" d="M292.571 205.714q0 20.571-11.429 39.429-0.571 0.571-8.857 12.857t-14.571 21.714-14.286 25.143-12 28.857q-2.286 9.143-12 9.143t-12-9.143q-4-13.143-12-28.857t-14.286-25.143-14.571-21.714-8.857-12.857q-11.429-18.857-11.429-39.429 0-30.286 21.429-51.714t51.714-21.429 51.714 21.429 21.429 51.714zM585.143 278.857q0-121.143-85.714-206.857t-206.857-85.714-206.857 85.714-85.714 206.857q0 82.857 46.286 157.143 3.429 5.143 35.714 51.714t57.714 86.286 56.857 101.714 47.429 115.143q5.143 17.143 19.429 26.857t29.143 9.714 29.429-9.714 19.143-26.857q16-53.143 47.429-115.143t56.857-101.714 57.714-86.286 35.714-51.714q46.286-72.571 46.286-157.143z" />
<glyph unicode="&#xf044;" glyph-name="edit" d="M507.429 187.429l66.286 66.286-86.857 86.857-66.286-66.286v-32h54.857v-54.857h32zM758.857 598.857q-9.143 9.143-18.857-0.571l-200-200q-9.714-9.714-0.571-18.857t18.857 0.571l200 200q9.714 9.714 0.571 18.857zM804.571 259.429v-108.571q0-68-48.286-116.286t-116.286-48.286h-475.429q-68 0-116.286 48.286t-48.286 116.286v475.429q0 68 48.286 116.286t116.286 48.286h475.429q36 0 66.857-14.286 8.571-4 10.286-13.143 1.714-9.714-5.143-16.571l-28-28q-8-8-18.286-4.571-13.143 3.429-25.714 3.429h-475.429q-37.714 0-64.571-26.857t-26.857-64.571v-475.429q0-37.714 26.857-64.571t64.571-26.857h475.429q37.714 0 64.571 26.857t26.857 64.571v72q0 7.429 5.143 12.571l36.571 36.571q8.571 8.571 20 4t11.429-16.571zM749.714 681.143l164.571-164.571-384-384h-164.571v164.571zM1003.429 605.714l-52.571-52.571-164.571 164.571 52.571 52.571q16 16 38.857 16t38.857-16l86.857-86.857q16-16 16-38.857t-16-38.857z" />
<glyph unicode="&#xf045;" glyph-name="share" horiz-adv-x="951" d="M804.571 298.857v-148q0-68-48.286-116.286t-116.286-48.286h-475.429q-68 0-116.286 48.286t-48.286 116.286v475.429q0 68 48.286 116.286t116.286 48.286h145.714q7.429 0 12.857-5.429t5.429-12.857q0-15.429-14.857-18.286-44-14.857-76-34.286-5.714-2.286-9.143-2.286h-64q-37.714 0-64.571-26.857t-26.857-64.571v-475.429q0-37.714 26.857-64.571t64.571-26.857h475.429q37.714 0 64.571 26.857t26.857 64.571v122.286q0 10.857 10.286 16.571 16 7.429 30.857 21.143 9.143 9.143 20 4.571 12-5.143 12-16.571zM940 582.286l-219.429-219.429q-10.286-10.857-25.714-10.857-6.857 0-14.286 2.857-22.286 9.714-22.286 33.714v109.714h-91.429q-184.571 0-250.286-74.857-68-78.286-42.286-270.286 1.714-13.143-11.429-19.429-4.571-1.143-6.857-1.143-9.143 0-14.857 7.429-5.714 8-12 17.714t-22.571 39.143-28.286 56.857-22 65.143-10 69.714q0 28 2 52t8 51.429 16 50.286 26.857 46.571 39.143 42.286 54 35.143 71.143 27.714 91.143 17.429 112.286 6.286h91.429v109.714q0 24 22.286 33.714 7.429 2.857 14.286 2.857 14.857 0 25.714-10.857l219.429-219.429q10.857-10.857 10.857-25.714t-10.857-25.714z" />
<glyph unicode="&#xf046;" glyph-name="check" horiz-adv-x="951" d="M804.571 332.571v-181.714q0-68-48.286-116.286t-116.286-48.286h-475.429q-68 0-116.286 48.286t-48.286 116.286v475.429q0 68 48.286 116.286t116.286 48.286h475.429q36 0 66.857-14.286 8.571-4 10.286-13.143 1.714-9.714-5.143-16.571l-28-28q-5.714-5.714-13.143-5.714-1.714 0-5.143 1.143-13.143 3.429-25.714 3.429h-475.429q-37.714 0-64.571-26.857t-26.857-64.571v-475.429q0-37.714 26.857-64.571t64.571-26.857h475.429q37.714 0 64.571 26.857t26.857 64.571v145.143q0 7.429 5.143 12.571l36.571 36.571q5.714 5.714 13.143 5.714 3.429 0 6.857-1.714 11.429-4.571 11.429-16.571zM936.571 612l-465.143-465.143q-13.714-13.714-32.571-13.714t-32.571 13.714l-245.714 245.714q-13.714 13.714-13.714 32.571t13.714 32.571l62.857 62.857q13.714 13.714 32.571 13.714t32.571-13.714l150.286-150.286 369.714 369.714q13.714 13.714 32.571 13.714t32.571-13.714l62.857-62.857q13.714-13.714 13.714-32.571t-13.714-32.571z" />
<glyph unicode="&#xf047;" glyph-name="move" d="M1024 352q0-14.857-10.857-25.714l-146.286-146.286q-10.857-10.857-25.714-10.857t-25.714 10.857-10.857 25.714v73.143h-219.429v-219.429h73.143q14.857 0 25.714-10.857t10.857-25.714-10.857-25.714l-146.286-146.286q-10.857-10.857-25.714-10.857t-25.714 10.857l-146.286 146.286q-10.857 10.857-10.857 25.714t10.857 25.714 25.714 10.857h73.143v219.429h-219.429v-73.143q0-14.857-10.857-25.714t-25.714-10.857-25.714 10.857l-146.286 146.286q-10.857 10.857-10.857 25.714t10.857 25.714l146.286 146.286q10.857 10.857 25.714 10.857t25.714-10.857 10.857-25.714v-73.143h219.429v219.429h-73.143q-14.857 0-25.714 10.857t-10.857 25.714 10.857 25.714l146.286 146.286q10.857 10.857 25.714 10.857t25.714-10.857l146.286-146.286q10.857-10.857 10.857-25.714t-10.857-25.714-25.714-10.857h-73.143v-219.429h219.429v73.143q0 14.857 10.857 25.714t25.714 10.857 25.714-10.857l146.286-146.286q10.857-10.857 10.857-25.714z" />
<glyph unicode="&#xf053;" glyph-name="chevron_left" horiz-adv-x="731" d="M669.143 692l-303.429-303.429 303.429-303.429q10.857-10.857 10.857-25.714t-10.857-25.714l-94.857-94.857q-10.857-10.857-25.714-10.857t-25.714 10.857l-424 424q-10.857 10.857-10.857 25.714t10.857 25.714l424 424q10.857 10.857 25.714 10.857t25.714-10.857l94.857-94.857q10.857-10.857 10.857-25.714t-10.857-25.714z" />
<glyph unicode="&#xf054;" glyph-name="chevron_right" horiz-adv-x="731" d="M632.571 362.857l-424-424q-10.857-10.857-25.714-10.857t-25.714 10.857l-94.857 94.857q-10.857 10.857-10.857 25.714t10.857 25.714l303.429 303.429-303.429 303.429q-10.857 10.857-10.857 25.714t10.857 25.714l94.857 94.857q10.857 10.857 25.714 10.857t25.714-10.857l424-424q10.857-10.857 10.857-25.714t-10.857-25.714z" />
<glyph unicode="&#xf055;" glyph-name="plus_sign" d="M694.857 315.429v73.143q0 14.857-10.857 25.714t-25.714 10.857h-146.286v146.286q0 14.857-10.857 25.714t-25.714 10.857h-73.143q-14.857 0-25.714-10.857t-10.857-25.714v-146.286h-146.286q-14.857 0-25.714-10.857t-10.857-25.714v-73.143q0-14.857 10.857-25.714t25.714-10.857h146.286v-146.286q0-14.857 10.857-25.714t25.714-10.857h73.143q14.857 0 25.714 10.857t10.857 25.714v146.286h146.286q14.857 0 25.714 10.857t10.857 25.714zM877.714 352q0-119.429-58.857-220.286t-159.714-159.714-220.286-58.857-220.286 58.857-159.714 159.714-58.857 220.286 58.857 220.286 159.714 159.714 220.286 58.857 220.286-58.857 159.714-159.714 58.857-220.286z" />
<glyph unicode="&#xf056;" glyph-name="minus_sign" d="M694.857 315.429v73.143q0 14.857-10.857 25.714t-25.714 10.857h-438.857q-14.857 0-25.714-10.857t-10.857-25.714v-73.143q0-14.857 10.857-25.714t25.714-10.857h438.857q14.857 0 25.714 10.857t10.857 25.714zM877.714 352q0-119.429-58.857-220.286t-159.714-159.714-220.286-58.857-220.286 58.857-159.714 159.714-58.857 220.286 58.857 220.286 159.714 159.714 220.286 58.857 220.286-58.857 159.714-159.714 58.857-220.286z" />
<glyph unicode="&#xf057;" glyph-name="remove_sign" d="M656.571 222.857q0 14.857-10.857 25.714l-103.429 103.429 103.429 103.429q10.857 10.857 10.857 25.714 0 15.429-10.857 26.286l-51.429 51.429q-10.857 10.857-26.286 10.857-14.857 0-25.714-10.857l-103.429-103.429-103.429 103.429q-10.857 10.857-25.714 10.857-15.429 0-26.286-10.857l-51.429-51.429q-10.857-10.857-10.857-26.286 0-14.857 10.857-25.714l103.429-103.429-103.429-103.429q-10.857-10.857-10.857-25.714 0-15.429 10.857-26.286l51.429-51.429q10.857-10.857 26.286-10.857 14.857 0 25.714 10.857l103.429 103.429 103.429-103.429q10.857-10.857 25.714-10.857 15.429 0 26.286 10.857l51.429 51.429q10.857 10.857 10.857 26.286zM877.714 352q0-119.429-58.857-220.286t-159.714-159.714-220.286-58.857-220.286 58.857-159.714 159.714-58.857 220.286 58.857 220.286 159.714 159.714 220.286 58.857 220.286-58.857 159.714-159.714 58.857-220.286z" />
<glyph unicode="&#xf058;" glyph-name="ok_sign" d="M733.714 444.571q0 16-10.286 26.286l-52 51.429q-10.857 10.857-25.714 10.857t-25.714-10.857l-233.143-232.571-129.143 129.143q-10.857 10.857-25.714 10.857t-25.714-10.857l-52-51.429q-10.286-10.286-10.286-26.286 0-15.429 10.286-25.714l206.857-206.857q10.857-10.857 25.714-10.857 15.429 0 26.286 10.857l310.286 310.286q10.286 10.286 10.286 25.714zM877.714 352q0-119.429-58.857-220.286t-159.714-159.714-220.286-58.857-220.286 58.857-159.714 159.714-58.857 220.286 58.857 220.286 159.714 159.714 220.286 58.857 220.286-58.857 159.714-159.714 58.857-220.286z" />
<glyph unicode="&#xf059;" glyph-name="question_sign" d="M512 77.714v109.714q0 8-5.143 13.143t-13.143 5.143h-109.714q-8 0-13.143-5.143t-5.143-13.143v-109.714q0-8 5.143-13.143t13.143-5.143h109.714q8 0 13.143 5.143t5.143 13.143zM658.286 461.714q0 50.286-31.714 93.143t-79.143 66.286-97.143 23.429q-138.857 0-212-121.714-8.571-13.714 4.571-24l75.429-57.143q4-3.429 10.857-3.429 9.143 0 14.286 6.857 30.286 38.857 49.143 52.571 19.429 13.714 49.143 13.714 27.429 0 48.857-14.857t21.429-33.714q0-21.714-11.429-34.857t-38.857-25.714q-36-16-66-49.429t-30-71.714v-20.571q0-8 5.143-13.143t13.143-5.143h109.714q8 0 13.143 5.143t5.143 13.143q0 10.857 12.286 28.286t31.143 28.286q18.286 10.286 28 16.286t26.286 20 25.429 27.429 16 34.571 7.143 46.286zM877.714 352q0-119.429-58.857-220.286t-159.714-159.714-220.286-58.857-220.286 58.857-159.714 159.714-58.857 220.286 58.857 220.286 159.714 159.714 220.286 58.857 220.286-58.857 159.714-159.714 58.857-220.286z" />
<glyph unicode="&#xf05a;" glyph-name="info_sign" d="M585.143 77.714v91.429q0 8-5.143 13.143t-13.143 5.143h-54.857v292.571q0 8-5.143 13.143t-13.143 5.143h-182.857q-8 0-13.143-5.143t-5.143-13.143v-91.429q0-8 5.143-13.143t13.143-5.143h54.857v-182.857h-54.857q-8 0-13.143-5.143t-5.143-13.143v-91.429q0-8 5.143-13.143t13.143-5.143h256q8 0 13.143 5.143t5.143 13.143zM512 589.714v91.429q0 8-5.143 13.143t-13.143 5.143h-109.714q-8 0-13.143-5.143t-5.143-13.143v-91.429q0-8 5.143-13.143t13.143-5.143h109.714q8 0 13.143 5.143t5.143 13.143zM877.714 352q0-119.429-58.857-220.286t-159.714-159.714-220.286-58.857-220.286 58.857-159.714 159.714-58.857 220.286 58.857 220.286 159.714 159.714 220.286 58.857 220.286-58.857 159.714-159.714 58.857-220.286z" />
<glyph unicode="&#xf05b;" glyph-name="screenshot" d="M684 278.857h-62.286q-14.857 0-25.714 10.857t-10.857 25.714v73.143q0 14.857 10.857 25.714t25.714 10.857h62.286q-18.286 61.714-64.286 107.714t-107.714 64.286v-62.286q0-14.857-10.857-25.714t-25.714-10.857h-73.143q-14.857 0-25.714 10.857t-10.857 25.714v62.286q-61.714-18.286-107.714-64.286t-64.286-107.714h62.286q14.857 0 25.714-10.857t10.857-25.714v-73.143q0-14.857-10.857-25.714t-25.714-10.857h-62.286q18.286-61.714 64.286-107.714t107.714-64.286v62.286q0 14.857 10.857 25.714t25.714 10.857h73.143q14.857 0 25.714-10.857t10.857-25.714v-62.286q61.714 18.286 107.714 64.286t64.286 107.714zM877.714 388.571v-73.143q0-14.857-10.857-25.714t-25.714-10.857h-81.714q-21.143-92-88.286-159.143t-159.143-88.286v-81.714q0-14.857-10.857-25.714t-25.714-10.857h-73.143q-14.857 0-25.714 10.857t-10.857 25.714v81.714q-92 21.143-159.143 88.286t-88.286 159.143h-81.714q-14.857 0-25.714 10.857t-10.857 25.714v73.143q0 14.857 10.857 25.714t25.714 10.857h81.714q21.143 92 88.286 159.143t159.143 88.286v81.714q0 14.857 10.857 25.714t25.714 10.857h73.143q14.857 0 25.714-10.857t10.857-25.714v-81.714q92-21.143 159.143-88.286t88.286-159.143h81.714q14.857 0 25.714-10.857t10.857-25.714z" />
<glyph unicode="&#xf05c;" glyph-name="remove_circle" d="M626.857 247.429l-83.429-83.429q-5.714-5.714-13.143-5.714t-13.143 5.714l-78.286 78.286-78.286-78.286q-5.714-5.714-13.143-5.714t-13.143 5.714l-83.429 83.429q-5.714 5.714-5.714 13.143t5.714 13.143l78.286 78.286-78.286 78.286q-5.714 5.714-5.714 13.143t5.714 13.143l83.429 83.429q5.714 5.714 13.143 5.714t13.143-5.714l78.286-78.286 78.286 78.286q5.714 5.714 13.143 5.714t13.143-5.714l83.429-83.429q5.714-5.714 5.714-13.143t-5.714-13.143l-78.286-78.286 78.286-78.286q5.714-5.714 5.714-13.143t-5.714-13.143zM749.714 352q0 84.571-41.714 156t-113.143 113.143-156 41.714-156-41.714-113.143-113.143-41.714-156 41.714-156 113.143-113.143 156-41.714 156 41.714 113.143 113.143 41.714 156zM877.714 352q0-119.429-58.857-220.286t-159.714-159.714-220.286-58.857-220.286 58.857-159.714 159.714-58.857 220.286 58.857 220.286 159.714 159.714 220.286 58.857 220.286-58.857 159.714-159.714 58.857-220.286z" />
<glyph unicode="&#xf05d;" glyph-name="ok_circle" d="M669.143 399.429l-241.143-241.143q-10.857-10.857-25.714-10.857t-25.714 10.857l-168 168q-10.857 10.857-10.857 25.714t10.857 25.714l58.286 58.286q10.857 10.857 25.714 10.857t25.714-10.857l84-84 157.143 157.143q10.857 10.857 25.714 10.857t25.714-10.857l58.286-58.286q10.857-10.857 10.857-25.714t-10.857-25.714zM749.714 352q0 84.571-41.714 156t-113.143 113.143-156 41.714-156-41.714-113.143-113.143-41.714-156 41.714-156 113.143-113.143 156-41.714 156 41.714 113.143 113.143 41.714 156zM877.714 352q0-119.429-58.857-220.286t-159.714-159.714-220.286-58.857-220.286 58.857-159.714 159.714-58.857 220.286 58.857 220.286 159.714 159.714 220.286 58.857 220.286-58.857 159.714-159.714 58.857-220.286z" />
<glyph unicode="&#xf05e;" glyph-name="ban_circle" d="M749.714 353.714q0 92-49.714 168.571l-430.857-430.286q78.286-50.857 169.714-50.857 63.429 0 120.857 24.857t99.143 66.571 66.286 99.714 24.571 121.429zM178.857 182.857l431.429 430.857q-77.143 52-171.429 52-84.571 0-156-41.714t-113.143-113.714-41.714-156.571q0-92.571 50.857-170.857zM877.714 353.714q0-89.714-34.857-171.429t-93.429-140.571-140-93.714-170.571-34.857-170.571 34.857-140 93.714-93.429 140.571-34.857 171.429 34.857 171.143 93.429 140.286 140 93.714 170.571 34.857 170.571-34.857 140-93.714 93.429-140.286 34.857-171.143z" />
<glyph unicode="&#xf060;" glyph-name="arrow_left" d="M877.714 352v-73.143q0-30.286-18.571-51.714t-48.286-21.429h-402.286l167.429-168q21.714-20.571 21.714-51.429t-21.714-51.429l-42.857-43.429q-21.143-21.143-51.429-21.143-29.714 0-52 21.143l-372 372.571q-21.143 21.143-21.143 51.429 0 29.714 21.143 52l372 371.429q21.714 21.714 52 21.714 29.714 0 51.429-21.714l42.857-42.286q21.714-21.714 21.714-52t-21.714-52l-167.429-167.429h402.286q29.714 0 48.286-21.429t18.571-51.714z" />
<glyph unicode="&#xf061;" glyph-name="arrow_right" d="M841.143 315.429q0-30.857-21.143-52l-372-372q-22.286-21.143-52-21.143-29.143 0-51.429 21.143l-42.857 42.857q-21.714 21.714-21.714 52t21.714 52l167.429 167.429h-402.286q-29.714 0-48.286 21.429t-18.571 51.714v73.143q0 30.286 18.571 51.714t48.286 21.429h402.286l-167.429 168q-21.714 20.571-21.714 51.429t21.714 51.429l42.857 42.857q21.714 21.714 51.429 21.714 30.286 0 52-21.714l372-372q21.143-20 21.143-51.429z" />
<glyph unicode="&#xf062;" glyph-name="arrow_up" horiz-adv-x="951" d="M920.571 309.143q0-29.143-21.143-51.429l-42.857-42.857q-21.714-21.714-52-21.714-30.857 0-51.429 21.714l-168 167.429v-402.286q0-29.714-21.429-48.286t-51.714-18.571h-73.143q-30.286 0-51.714 18.571t-21.429 48.286v402.286l-168-167.429q-20.571-21.714-51.429-21.714t-51.429 21.714l-42.857 42.857q-21.714 21.714-21.714 51.429 0 30.286 21.714 52l372 372q20 21.143 51.429 21.143 30.857 0 52-21.143l372-372q21.143-22.286 21.143-52z" />
<glyph unicode="&#xf063;" glyph-name="arrow_down" horiz-adv-x="951" d="M920.571 388.571q0-30.286-21.143-51.429l-372-372.571q-22.286-21.143-52-21.143-30.286 0-51.429 21.143l-372 372.571q-21.714 20.571-21.714 51.429 0 30.286 21.714 52l42.286 42.857q22.286 21.143 52 21.143 30.286 0 51.429-21.143l168-168v402.286q0 29.714 21.714 51.429t51.429 21.714h73.143q29.714 0 51.429-21.714t21.714-51.429v-402.286l168 168q21.143 21.143 51.429 21.143 29.714 0 52-21.143l42.857-42.857q21.143-22.286 21.143-52z" />
<glyph unicode="&#xf064;" glyph-name="share_alt" d="M1024 498.286q0-14.857-10.857-25.714l-292.571-292.571q-10.857-10.857-25.714-10.857t-25.714 10.857-10.857 25.714v146.286h-128q-56 0-100.286-3.429t-88-12.286-76-24.286-60.286-39.714-45.714-57.714-27.714-79.143-10-103.429q0-31.429 2.857-70.286 0-3.429 1.429-13.429t1.429-15.143q0-8.571-4.857-14.286t-13.429-5.714q-9.143 0-16 9.714-4 5.143-7.429 12.571t-7.714 17.143-6 13.714q-72.571 162.857-72.571 257.714 0 113.714 30.286 190.286 92.571 230.286 500 230.286h128v146.286q0 14.857 10.857 25.714t25.714 10.857 25.714-10.857l292.571-292.571q10.857-10.857 10.857-25.714z" />
<glyph unicode="&#xf065;" glyph-name="resize_full" d="M431.429 260.571q0-7.429-5.714-13.143l-189.714-189.714 82.286-82.286q10.857-10.857 10.857-25.714t-10.857-25.714-25.714-10.857h-256q-14.857 0-25.714 10.857t-10.857 25.714v256q0 14.857 10.857 25.714t25.714 10.857 25.714-10.857l82.286-82.286 189.714 189.714q5.714 5.714 13.143 5.714t13.143-5.714l65.143-65.143q5.714-5.714 5.714-13.143zM877.714 754.286v-256q0-14.857-10.857-25.714t-25.714-10.857-25.714 10.857l-82.286 82.286-189.714-189.714q-5.714-5.714-13.143-5.714t-13.143 5.714l-65.143 65.143q-5.714 5.714-5.714 13.143t5.714 13.143l189.714 189.714-82.286 82.286q-10.857 10.857-10.857 25.714t10.857 25.714 25.714 10.857h256q14.857 0 25.714-10.857t10.857-25.714z" />
<glyph unicode="&#xf066;" glyph-name="resize_small" d="M438.857 315.429v-256q0-14.857-10.857-25.714t-25.714-10.857-25.714 10.857l-82.286 82.286-189.714-189.714q-5.714-5.714-13.143-5.714t-13.143 5.714l-65.143 65.143q-5.714 5.714-5.714 13.143t5.714 13.143l189.714 189.714-82.286 82.286q-10.857 10.857-10.857 25.714t10.857 25.714 25.714 10.857h256q14.857 0 25.714-10.857t10.857-25.714zM870.286 699.429q0-7.429-5.714-13.143l-189.714-189.714 82.286-82.286q10.857-10.857 10.857-25.714t-10.857-25.714-25.714-10.857h-256q-14.857 0-25.714 10.857t-10.857 25.714v256q0 14.857 10.857 25.714t25.714 10.857 25.714-10.857l82.286-82.286 189.714 189.714q5.714 5.714 13.143 5.714t13.143-5.714l65.143-65.143q5.714-5.714 5.714-13.143z" />
<glyph unicode="&#xf067;" glyph-name="plus" horiz-adv-x="805" d="M804.571 443.429v-109.714q0-22.857-16-38.857t-38.857-16h-237.714v-237.714q0-22.857-16-38.857t-38.857-16h-109.714q-22.857 0-38.857 16t-16 38.857v237.714h-237.714q-22.857 0-38.857 16t-16 38.857v109.714q0 22.857 16 38.857t38.857 16h237.714v237.714q0 22.857 16 38.857t38.857 16h109.714q22.857 0 38.857-16t16-38.857v-237.714h237.714q22.857 0 38.857-16t16-38.857z" />
<glyph unicode="&#xf068;" glyph-name="minus" horiz-adv-x="805" d="M804.571 443.429v-109.714q0-22.857-16-38.857t-38.857-16h-694.857q-22.857 0-38.857 16t-16 38.857v109.714q0 22.857 16 38.857t38.857 16h694.857q22.857 0 38.857-16t16-38.857z" />
<glyph unicode="&#xf069;" glyph-name="asterisk" horiz-adv-x="951" d="M846.857 264q26.286-14.857 34-44.286t-7.143-55.714l-36.571-62.857q-14.857-26.286-44.286-34t-55.714 7.143l-152 87.429v-175.429q0-29.714-21.714-51.429t-51.429-21.714h-73.143q-29.714 0-51.429 21.714t-21.714 51.429v175.429l-152-87.429q-26.286-14.857-55.714-7.143t-44.286 34l-36.571 62.857q-14.857 26.286-7.143 55.714t34 44.286l152 88-152 88q-26.286 14.857-34 44.286t7.143 55.714l36.571 62.857q14.857 26.286 44.286 34t55.714-7.143l152-87.429v175.429q0 29.714 21.714 51.429t51.429 21.714h73.143q29.714 0 51.429-21.714t21.714-51.429v-175.429l152 87.429q26.286 14.857 55.714 7.143t44.286-34l36.571-62.857q14.857-26.286 7.143-55.714t-34-44.286l-152-88z" />
<glyph unicode="&#xf06a;" glyph-name="exclamation_sign" d="M438.857 790.857q119.429 0 220.286-58.857t159.714-159.714 58.857-220.286-58.857-220.286-159.714-159.714-220.286-58.857-220.286 58.857-159.714 159.714-58.857 220.286 58.857 220.286 159.714 159.714 220.286 58.857zM512 78.286v108.571q0 8-5.143 13.429t-12.571 5.429h-109.714q-7.429 0-13.143-5.714t-5.714-13.143v-108.571q0-7.429 5.714-13.143t13.143-5.714h109.714q7.429 0 12.571 5.429t5.143 13.429zM510.857 274.857l10.286 354.857q0 6.857-5.714 10.286-5.714 4.571-13.714 4.571h-125.714q-8 0-13.714-4.571-5.714-3.429-5.714-10.286l9.714-354.857q0-5.714 5.714-10t13.714-4.286h105.714q8 0 13.429 4.286t6 10z" />
<glyph unicode="&#xf06b;" glyph-name="gift" d="M530.286 89.143v409.143h-182.857v-409.143q0-14.286 10.286-22t26.286-7.714h109.714q16 0 26.286 7.714t10.286 22zM269.714 571.429h111.429l-72 92q-14.857 17.714-39.429 17.714-22.857 0-38.857-16t-16-38.857 16-38.857 38.857-16zM662.857 626.286q0 22.857-16 38.857t-38.857 16q-24.571 0-39.429-17.714l-71.429-92h110.857q22.857 0 38.857 16t16 38.857zM877.714 480v-182.857q0-8-5.143-13.143t-13.143-5.143h-54.857v-237.714q0-22.857-16-38.857t-38.857-16h-621.714q-22.857 0-38.857 16t-16 38.857v237.714h-54.857q-8 0-13.143 5.143t-5.143 13.143v182.857q0 8 5.143 13.143t13.143 5.143h251.429q-53.143 0-90.571 37.429t-37.429 90.571 37.429 90.571 90.571 37.429q61.143 0 96-44l73.143-94.286 73.143 94.286q34.857 44 96 44 53.143 0 90.571-37.429t37.429-90.571-37.429-90.571-90.571-37.429h251.429q8 0 13.143-5.143t5.143-13.143z" />
<glyph unicode="&#xf06c;" glyph-name="leaf" d="M731.429 461.714q0 14.857-10.857 25.714t-25.714 10.857q-98.286 0-181.714-28.286t-148.286-76.571-134.571-125.429q-10.857-12-10.857-25.714 0-14.857 10.857-25.714t25.714-10.857q13.714 0 25.714 10.857 15.429 13.714 42.286 40.571t38.286 37.714q78.286 70.857 153.429 100.571t179.143 29.714q14.857 0 25.714 10.857t10.857 25.714zM1024 574.857q0-54.286-11.429-110.286-26.286-128-105.429-218.857t-204.286-153.143q-122.286-61.714-250.286-61.714-84.571 0-163.429 26.857-8.571 2.857-50.286 24t-54.857 21.143q-9.143 0-22.571-18.286t-25.714-40-30-40-34.286-18.286q-24.571 0-36.286 10t-26 34q-1.143 2.286-3.429 6.286t-3.143 5.714-1.714 5.429-0.857 7.714q0 20 17.714 42t38.857 37.429 38.857 32 17.714 27.429q0 2.286-8 21.714t-9.143 25.143q-5.143 29.143-5.143 59.429 0 65.714 24.857 125.714t68 105.429 97.429 79.429 116.571 54.571q31.429 10.286 82.857 14.571t102.571 5.143 102 3.429 93.429 13.714 64.857 32.286l16.857 16.857t16.857 16 15.429 11.429 20.857 9.143 24.857 2.571q22.286 0 40.286-26.286t27.143-64 13.714-70.857 4.571-54.857z" />
<glyph unicode="&#xf06d;" glyph-name="fire" horiz-adv-x="805" d="M804.571-105.143v-36.571q0-7.429-5.429-12.857t-12.857-5.429h-768q-7.429 0-12.857 5.429t-5.429 12.857v36.571q0 7.429 5.429 12.857t12.857 5.429h768q7.429 0 12.857-5.429t5.429-12.857zM658.286 498.286q0-44.571-14-82.286t-36.571-64.286-50-50.286-54.857-44.286-50-41.143-36.571-46.571-14-55.143q0-54.857 38.286-128l-2.286 0.571 0.571-0.571q-51.429 23.429-91.429 47.429t-79.143 57.143-64.857 70-41.429 86-15.714 105.143q0 44.571 14 82.286t36.571 64.286 50 50.286 54.857 44.286 50 41.143 36.571 46.571 14 55.143q0 53.714-37.714 128l1.714-0.571-0.571 0.571q51.429-23.429 91.429-47.429t79.143-57.143 64.857-70 41.429-86 15.714-105.143z" />
<glyph unicode="&#xf06e;" glyph-name="eye_open" d="M950.857 315.429q-86.857 134.857-217.714 201.714 34.857-59.429 34.857-128.571 0-105.714-75.143-180.857t-180.857-75.143-180.857 75.143-75.143 180.857q0 69.143 34.857 128.571-130.857-66.857-217.714-201.714 76-117.143 190.571-186.571t248.286-69.429 248.286 69.429 190.571 186.571zM539.429 534.857q0 11.429-8 19.429t-19.429 8q-71.429 0-122.571-51.143t-51.143-122.571q0-11.429 8-19.429t19.429-8 19.429 8 8 19.429q0 49.143 34.857 84t84 34.857q11.429 0 19.429 8t8 19.429zM1024 315.429q0-19.429-11.429-39.429-80-131.429-215.143-210.571t-285.429-79.143-285.429 79.429-215.143 210.286q-11.429 20-11.429 39.429t11.429 39.429q80 130.857 215.143 210.286t285.429 79.429 285.429-79.429 215.143-210.286q11.429-20 11.429-39.429z" />
<glyph unicode="&#xf070;" glyph-name="eye_close" d="M317.143 101.143l44.571 80.571q-49.714 36-77.714 90.857t-28 116q0 69.143 34.857 128.571-130.857-66.857-217.714-201.714 95.429-147.429 244-214.286zM539.429 534.857q0 11.429-8 19.429t-19.429 8q-71.429 0-122.571-51.143t-51.143-122.571q0-11.429 8-19.429t19.429-8 19.429 8 8 19.429q0 49.143 34.857 84t84 34.857q11.429 0 19.429 8t8 19.429zM746.857 644q0-4-0.571-5.143-60.571-108-180.571-324t-180-323.429l-28-50.857q-5.714-9.143-16-9.143-6.857 0-76.571 40-9.143 5.714-9.143 16 0 6.857 25.143 49.714-81.714 37.143-150.571 98.857t-119.143 140q-11.429 17.714-11.429 39.429t11.429 39.429q87.429 134.286 217.143 212t283.429 77.714q50.857 0 102.857-9.714l30.857 55.429q5.714 9.143 16 9.143 2.857 0 10.286-3.429t17.714-8.857 18.857-10.571 18-10.571 11.143-6.571q9.143-5.714 9.143-15.429zM768 388.571q0-79.429-45.143-144.857t-119.429-94l160 286.857q4.571-25.714 4.571-48zM1024 315.429q0-20-11.429-39.429-22.286-36.571-62.286-82.857-85.714-98.286-198.571-152.571t-239.714-54.286l42.286 75.429q121.143 10.286 224.286 78.286t172.286 175.429q-65.714 102.286-161.143 168l36 64q54.286-36.571 104.286-87.429t82.571-105.143q11.429-19.429 11.429-39.429z" />
<glyph unicode="&#xf071;" glyph-name="warning_sign" d="M585.143 78.286v108.571q0 8-5.429 13.429t-12.857 5.429h-109.714q-7.429 0-12.857-5.429t-5.429-13.429v-108.571q0-8 5.429-13.429t12.857-5.429h109.714q7.429 0 12.857 5.429t5.429 13.429zM584 292l10.286 262.286q0 6.857-5.714 10.857-7.429 6.286-13.714 6.286h-125.714q-6.286 0-13.714-6.286-5.714-4-5.714-12l9.714-261.143q0-5.714 5.714-9.429t13.714-3.714h105.714q8 0 13.429 3.714t6 9.429zM576 825.714l438.857-804.571q20-36-1.143-72-9.714-16.571-26.571-26.286t-36.286-9.714h-877.714q-19.429 0-36.286 9.714t-26.571 26.286q-21.143 36-1.143 72l438.857 804.571q9.714 17.714 26.857 28t37.143 10.286 37.143-10.286 26.857-28z" />
<glyph unicode="&#xf073;" glyph-name="calendar" horiz-adv-x="951" d="M73.143-86.857h164.571v164.571h-164.571v-164.571zM274.286-86.857h182.857v164.571h-182.857v-164.571zM73.143 114.286h164.571v182.857h-164.571v-182.857zM274.286 114.286h182.857v182.857h-182.857v-182.857zM73.143 333.714h164.571v164.571h-164.571v-164.571zM493.714-86.857h182.857v164.571h-182.857v-164.571zM274.286 333.714h182.857v164.571h-182.857v-164.571zM713.143-86.857h164.571v164.571h-164.571v-164.571zM493.714 114.286h182.857v182.857h-182.857v-182.857zM292.571 608v164.571q0 7.429-5.429 12.857t-12.857 5.429h-36.571q-7.429 0-12.857-5.429t-5.429-12.857v-164.571q0-7.429 5.429-12.857t12.857-5.429h36.571q7.429 0 12.857 5.429t5.429 12.857zM713.143 114.286h164.571v182.857h-164.571v-182.857zM493.714 333.714h182.857v164.571h-182.857v-164.571zM713.143 333.714h164.571v164.571h-164.571v-164.571zM731.429 608v164.571q0 7.429-5.429 12.857t-12.857 5.429h-36.571q-7.429 0-12.857-5.429t-5.429-12.857v-164.571q0-7.429 5.429-12.857t12.857-5.429h36.571q7.429 0 12.857 5.429t5.429 12.857zM950.857 644.571v-731.429q0-29.714-21.714-51.429t-51.429-21.714h-804.571q-29.714 0-51.429 21.714t-21.714 51.429v731.429q0 29.714 21.714 51.429t51.429 21.714h73.143v54.857q0 37.714 26.857 64.571t64.571 26.857h36.571q37.714 0 64.571-26.857t26.857-64.571v-54.857h219.429v54.857q0 37.714 26.857 64.571t64.571 26.857h36.571q37.714 0 64.571-26.857t26.857-64.571v-54.857h73.143q29.714 0 51.429-21.714t21.714-51.429z" />
<glyph unicode="&#xf074;" glyph-name="random" d="M380.571 589.143q-34.286-52.571-78.286-156-12.571 25.714-21.143 41.429t-23.143 36.286-29.143 32.286-36 20-46.571 8.286h-128q-8 0-13.143 5.143t-5.143 13.143v109.714q0 8 5.143 13.143t13.143 5.143h128q142.857 0 234.286-128.571zM1024 132.571q0-8-5.143-13.143l-182.857-182.857q-5.143-5.143-13.143-5.143-7.429 0-12.857 5.429t-5.429 12.857v109.714q-18.286 0-48.571-0.286t-46.286-0.571-41.714 0.571-40.571 2.857-36.571 6-36 10.571-33.143 16.286-33.714 22.857-31.429 30.571-32 39.714q33.714 53.143 77.714 156 12.571-25.714 21.143-41.429t23.143-36.286 29.143-32.286 36-20 46.571-8.286h146.286v109.714q0 8 5.143 13.143t13.143 5.143q6.857 0 13.714-5.714l182.286-182.286q5.143-5.143 5.143-13.143zM1024 644.571q0-8-5.143-13.143l-182.857-182.857q-5.143-5.143-13.143-5.143-7.429 0-12.857 5.429t-5.429 12.857v109.714h-146.286q-27.429 0-49.714-8.571t-39.429-25.714-29.143-35.143-25.714-44.286q-18.286-35.429-44.571-97.714-16.571-37.714-28.286-63.429t-30.857-60-36.571-57.143-42.286-47.429-51.429-39.143-60.857-24-73.143-9.429h-128q-8 0-13.143 5.143t-5.143 13.143v109.714q0 8 5.143 13.143t13.143 5.143h128q27.429 0 49.714 8.571t39.429 25.714 29.143 35.143 25.714 44.286q18.286 35.429 44.571 97.714 16.571 37.714 28.286 63.429t30.857 60 36.571 57.143 42.286 47.429 51.429 39.143 60.857 24 73.143 9.429h146.286v109.714q0 8 5.143 13.143t13.143 5.143q6.857 0 13.714-5.714l182.286-182.286q5.143-5.143 5.143-13.143z" />
<glyph unicode="&#xf075;" glyph-name="comment" d="M1024 352q0-99.429-68.571-183.714t-186.286-133.143-257.143-48.857q-40 0-82.857 4.571-113.143-100-262.857-138.286-28-8-65.143-12.571-9.714-1.143-17.429 5.143t-10 16.571v0.571q-1.714 2.286-0.286 6.857t1.143 5.714 2.571 5.429l3.429 5.143t4 4.857 4.571 5.143q4 4.571 17.714 19.714t19.714 21.714 17.714 22.571 18.571 29.143 15.429 33.714 14.857 43.429q-89.714 50.857-141.429 125.714t-51.714 160.571q0 74.286 40.571 142t109.143 116.857 163.429 78 198.857 28.857q139.429 0 257.143-48.857t186.286-133.143 68.571-183.714z" />
<glyph unicode="&#xf077;" glyph-name="chevron_up" d="M961.714 103.429l-94.857-94.286q-10.857-10.857-25.714-10.857t-25.714 10.857l-303.429 303.429-303.429-303.429q-10.857-10.857-25.714-10.857t-25.714 10.857l-94.857 94.286q-10.857 10.857-10.857 26t10.857 26l424 423.429q10.857 10.857 25.714 10.857t25.714-10.857l424-423.429q10.857-10.857 10.857-26t-10.857-26z" />
<glyph unicode="&#xf078;" glyph-name="chevron_down" d="M961.714 402.286l-424-423.429q-10.857-10.857-25.714-10.857t-25.714 10.857l-424 423.429q-10.857 10.857-10.857 26t10.857 26l94.857 94.286q10.857 10.857 25.714 10.857t25.714-10.857l303.429-303.429 303.429 303.429q10.857 10.857 25.714 10.857t25.714-10.857l94.857-94.286q10.857-10.857 10.857-26t-10.857-26z" />
<glyph unicode="&#xf079;" glyph-name="retweet" horiz-adv-x="1097" d="M731.429 4.571q0-7.429-5.429-12.857t-12.857-5.429h-548.571q-4.571 0-7.714 1.143t-5.143 4-3.143 4.571-1.714 6.571-0.571 6.571v342.857h-109.714q-14.857 0-25.714 10.857t-10.857 25.714q0 13.714 8.571 23.429l182.857 219.429q10.857 12.571 28 12.571t28-12.571l182.857-219.429q8.571-9.714 8.571-23.429 0-14.857-10.857-25.714t-25.714-10.857h-109.714v-219.429h329.143q9.143 0 14.286-6.286l91.429-109.714q4-5.714 4-12zM1097.143 242.286q0-13.714-8.571-23.429l-182.857-219.429q-11.429-13.143-28-13.143t-28 13.143l-182.857 219.429q-8.571 9.714-8.571 23.429 0 14.857 10.857 25.714t25.714 10.857h109.714v219.429h-329.143q-9.143 0-14.286 6.857l-91.429 109.714q-4 5.143-4 11.429 0 7.429 5.429 12.857t12.857 5.429h548.571q4.571 0 7.714-1.143t5.143-4 3.143-4.571 1.714-6.571 0.571-6.571v-342.857h109.714q14.857 0 25.714-10.857t10.857-25.714z" />
<glyph unicode="&#xf07b;" glyph-name="folder_close" horiz-adv-x="951" d="M950.857 516.571v-402.286q0-52.571-37.714-90.286t-90.286-37.714h-694.857q-52.571 0-90.286 37.714t-37.714 90.286v548.571q0 52.571 37.714 90.286t90.286 37.714h182.857q52.571 0 90.286-37.714t37.714-90.286v-18.286h384q52.571 0 90.286-37.714t37.714-90.286z" />
<glyph unicode="&#xf07c;" glyph-name="folder_open" horiz-adv-x="1097" d="M1073.714 320q0-17.714-17.714-37.714l-192-226.286q-24.571-29.143-68.857-49.429t-82-20.286h-621.714q-19.429 0-34.571 7.429t-15.143 24.571q0 17.714 17.714 37.714l192 226.286q24.571 29.143 68.857 49.429t82 20.286h621.714q19.429 0 34.571-7.429t15.143-24.571zM877.714 516.571v-91.429h-475.429q-53.714 0-112.571-27.143t-93.714-68.286l-195.429-229.714q0 2.286-0.286 7.143t-0.286 7.143v548.571q0 52.571 37.714 90.286t90.286 37.714h182.857q52.571 0 90.286-37.714t37.714-90.286v-18.286h310.857q52.571 0 90.286-37.714t37.714-90.286z" />
<glyph unicode="&#xf07d;" glyph-name="resize_vertical" horiz-adv-x="439" d="M402.286 681.143q0-14.857-10.857-25.714t-25.714-10.857h-73.143v-585.143h73.143q14.857 0 25.714-10.857t10.857-25.714-10.857-25.714l-146.286-146.286q-10.857-10.857-25.714-10.857t-25.714 10.857l-146.286 146.286q-10.857 10.857-10.857 25.714t10.857 25.714 25.714 10.857h73.143v585.143h-73.143q-14.857 0-25.714 10.857t-10.857 25.714 10.857 25.714l146.286 146.286q10.857 10.857 25.714 10.857t25.714-10.857l146.286-146.286q10.857-10.857 10.857-25.714z" />
<glyph unicode="&#xf07e;" glyph-name="resize_horizontal" d="M1024 352q0-14.857-10.857-25.714l-146.286-146.286q-10.857-10.857-25.714-10.857t-25.714 10.857-10.857 25.714v73.143h-585.143v-73.143q0-14.857-10.857-25.714t-25.714-10.857-25.714 10.857l-146.286 146.286q-10.857 10.857-10.857 25.714t10.857 25.714l146.286 146.286q10.857 10.857 25.714 10.857t25.714-10.857 10.857-25.714v-73.143h585.143v73.143q0 14.857 10.857 25.714t25.714 10.857 25.714-10.857l146.286-146.286q10.857-10.857 10.857-25.714z" />
<glyph unicode="&#xf080;" glyph-name="bar_chart" horiz-adv-x="1170" d="M365.714 352v-292.571h-146.286v292.571h146.286zM585.143 644.571v-585.143h-146.286v585.143h146.286zM1170.286-13.714v-73.143h-1170.286v877.714h73.143v-804.571h1097.143zM804.571 498.286v-438.857h-146.286v438.857h146.286zM1024 717.714v-658.286h-146.286v658.286h146.286z" />
<glyph unicode="&#xf084;" glyph-name="key" d="M475.429 571.429q0 45.714-32 77.714t-77.714 32-77.714-32-32-77.714q0-24 10.857-47.429-23.429 10.857-47.429 10.857-45.714 0-77.714-32t-32-77.714 32-77.714 77.714-32 77.714 32 32 77.714q0 24-10.857 47.429 23.429-10.857 47.429-10.857 45.714 0 77.714 32t32 77.714zM961.714 169.143q0-9.714-28-37.714t-37.714-28q-5.143 0-16.286 9.143t-20.857 18.857-22 22.857-14 14.857l-54.857-54.857 125.714-125.714q16-16 16-38.857 0-24-22.286-46.286t-46.286-22.286q-22.857 0-38.857 16l-383.429 383.429q-100.571-74.857-208.571-74.857-93.143 0-151.714 58.571t-58.571 151.714q0 91.429 54.286 178.857t141.714 141.714 178.857 54.286q93.143 0 151.714-58.571t58.571-151.714q0-108-74.857-208.571l202.857-202.857 54.857 54.857q-1.714 1.714-14.857 14t-22.857 22-18.857 20.857-9.143 16.286q0 9.714 28 37.714t37.714 28q7.429 0 13.143-5.714 3.429-3.429 26.286-25.429t46.857-45.429 49.429-49.143 41.714-44.571 16.286-23.429z" />
</font>
</defs>
</svg>
